<?xml version="1.0" standalone="no"?>
<!DOCTYPE svg PUBLIC "-//W3C//DTD SVG 1.1//EN" "http://www.w3.org/Graphics/SVG/1.1/DTD/svg11.dtd" >
<svg xmlns="http://www.w3.org/2000/svg">
<metadata>coolicons</metadata>
<defs>
<font id="coolicons" horiz-adv-x="1024">
<font-face units-per-em="1024" ascent="960" descent="-64" />
<missing-glyph horiz-adv-x="1024" />
<glyph unicode="&#x20;" horiz-adv-x="512" d="" />
<glyph unicode="&#xe900;" glyph-name="Add_Column" d="M640 21.333h-42.667c-23.582 0-42.667 19.106-42.667 42.667s19.085 42.667 42.667 42.667h42.667c23.543 0 42.667 19.145 42.667 42.667v597.333c0 23.522-19.123 42.667-42.667 42.667h-85.333c-23.543 0-42.667-19.145-42.667-42.667v-256c0-23.561-19.085-42.667-42.667-42.667s-42.667 19.106-42.667 42.667v256c0 70.583 57.417 128 128 128h85.333c70.583 0 128-57.417 128-128v-597.333c0-70.583-57.417-128-128-128zM341.333 64c-23.582 0-42.667 19.106-42.667 42.667v85.333h-85.333c-23.582 0-42.667 19.106-42.667 42.667s19.085 42.667 42.667 42.667h85.333v85.333c0 23.561 19.085 42.667 42.667 42.667s42.667-19.106 42.667-42.667v-85.333h85.333c23.582 0 42.667-19.106 42.667-42.667s-19.085-42.667-42.667-42.667h-85.333v-85.333c0-23.561-19.085-42.667-42.667-42.667z" />
<glyph unicode="&#xe901;" glyph-name="Add_Minus_Square" d="M716.791 64h-409.583c-52.791 0-81.916 0-109.333 13.897-24.29 12.668-43.997 32.521-55.875 56.145-13.999 27.123-14 56.269-14 109.167v409.583c0 52.894 0.001 82.044 14.167 109.5 11.665 23.249 31.377 43.122 55.292 55.581 27.831 14.127 56.959 14.128 109.75 14.128h409.583c52.791 0 81.916 0.001 109.333-13.896 24.333-12.689 44.045-32.563 55.919-56.188 13.956-27.085 13.956-56.231 13.956-109.125v-409.583c0-52.894 0-82.044-14.165-109.5-11.708-23.292-31.415-43.145-55.292-55.582-27.831-14.127-56.96-14.127-109.751-14.127zM307.209 746.667c-37.043 0-61.5-0.001-70.75-4.69-7.71-4.019-14.333-10.622-18.25-18.396-4.877-9.455-4.875-33.853-4.875-70.789v-409.583c0-36.937-0.001-61.333 4.667-70.417 4.125-8.124 10.751-14.75 18.875-18.999 8.832-4.459 33.295-4.459 70.333-4.459h409.583c37.043 0 61.5 0 70.75 4.689 7.71 4.019 14.332 10.645 18.291 18.436 4.834 9.417 4.834 33.813 4.834 70.75v409.583c0 36.937 0 61.333-4.668 70.417-4.126 8.145-10.752 14.75-18.876 19-8.832 4.459-33.289 4.458-70.332 4.458h-409.583zM682.667 405.333h-341.333c-23.582 0-42.667 19.106-42.667 42.667s19.085 42.667 42.667 42.667h341.333c23.582 0 42.667-19.106 42.667-42.667s-19.085-42.667-42.667-42.667z" />
<glyph unicode="&#xe902;" glyph-name="Add_Plus_Circle" d="M512 21.333c-235.251 0-426.667 191.394-426.667 426.667s191.415 426.667 426.667 426.667c235.251 0 426.667-191.394 426.667-426.667s-191.415-426.667-426.667-426.667zM512 789.333c-188.207 0-341.333-153.126-341.333-341.333s153.126-341.333 341.333-341.333c188.207 0 341.333 153.126 341.333 341.333s-153.126 341.333-341.333 341.333zM512 234.667c-23.582 0-42.667 19.106-42.667 42.667v128h-128c-23.582 0-42.667 19.106-42.667 42.667s19.085 42.667 42.667 42.667h128v128c0 23.561 19.085 42.667 42.667 42.667s42.667-19.106 42.667-42.667v-128h128c23.582 0 42.667-19.106 42.667-42.667s-19.085-42.667-42.667-42.667h-128v-128c0-23.561-19.085-42.667-42.667-42.667z" />
<glyph unicode="&#xe903;" glyph-name="Add_Plus_Square" d="M716.791 64h-409.583c-52.791 0-81.916 0-109.333 13.897-24.29 12.668-43.997 32.521-55.875 56.145-13.999 27.123-14 56.269-14 109.167v409.583c0 52.894 0.001 82.044 14.167 109.5 11.665 23.249 31.377 43.122 55.292 55.581 27.831 14.127 56.959 14.128 109.75 14.128h409.583c52.791 0 81.916 0.001 109.333-13.896 24.333-12.689 44.045-32.563 55.919-56.188 13.956-27.085 13.956-56.231 13.956-109.125v-409.583c0-52.894 0-82.044-14.165-109.5-11.708-23.292-31.415-43.145-55.292-55.582-27.831-14.127-56.96-14.127-109.751-14.127zM307.209 746.667c-37.043 0-61.5-0.001-70.75-4.69-7.71-4.019-14.333-10.622-18.25-18.396-4.877-9.455-4.875-33.853-4.875-70.789v-409.583c0-36.937-0.001-61.333 4.667-70.417 4.125-8.124 10.751-14.75 18.875-18.999 8.832-4.459 33.295-4.459 70.333-4.459h409.583c37.043 0 61.5 0 70.75 4.689 7.71 4.019 14.332 10.645 18.291 18.436 4.834 9.417 4.834 33.813 4.834 70.75v409.583c0 36.937 0 61.333-4.668 70.417-4.126 8.145-10.752 14.75-18.876 19-8.832 4.459-33.289 4.458-70.332 4.458h-409.583zM512 234.667c-23.582 0-42.667 19.106-42.667 42.667v128h-128c-23.582 0-42.667 19.106-42.667 42.667s19.085 42.667 42.667 42.667h128v128c0 23.561 19.085 42.667 42.667 42.667s42.667-19.106 42.667-42.667v-128h128c23.582 0 42.667-19.106 42.667-42.667s-19.085-42.667-42.667-42.667h-128v-128c0-23.561-19.085-42.667-42.667-42.667z" />
<glyph unicode="&#xe904;" glyph-name="Add_Plus" d="M512 149.333c-23.582 0-42.667 19.106-42.667 42.667v213.333h-213.333c-23.582 0-42.667 19.106-42.667 42.667s19.085 42.667 42.667 42.667h213.333v213.333c0 23.561 19.085 42.667 42.667 42.667s42.667-19.106 42.667-42.667v-213.333h213.333c23.582 0 42.667-19.106 42.667-42.667s-19.085-42.667-42.667-42.667h-213.333v-213.333c0-23.561-19.085-42.667-42.667-42.667z" />
<glyph unicode="&#xe905;" glyph-name="Add_Row" d="M810.667 192h-597.333c-70.583 0-128 57.417-128 128v42.667c0 23.561 19.085 42.667 42.667 42.667s42.667-19.106 42.667-42.667v-42.667c0-23.522 19.123-42.667 42.667-42.667h597.333c23.543 0 42.667 19.145 42.667 42.667v85.333c0 23.522-19.123 42.667-42.667 42.667h-256c-23.582 0-42.667 19.106-42.667 42.667s19.085 42.667 42.667 42.667h256c70.583 0 128-57.417 128-128v-85.333c0-70.583-57.417-128-128-128zM298.667 448c-23.582 0-42.667 19.106-42.667 42.667v85.333h-85.333c-23.582 0-42.667 19.106-42.667 42.667s19.085 42.667 42.667 42.667h85.333v85.333c0 23.561 19.085 42.667 42.667 42.667s42.667-19.106 42.667-42.667v-85.333h85.333c23.582 0 42.667-19.106 42.667-42.667s-19.085-42.667-42.667-42.667h-85.333v-85.333c0-23.561-19.085-42.667-42.667-42.667z" />
<glyph unicode="&#xe906;" glyph-name="Add_To_Queue" d="M640 21.333h-443.75c-27.831 0-46.249 0-64.417 9.438-16.29 8.209-29.75 21.773-37.583 37.956-8.917 17.417-8.916 35.772-8.916 63.543v443.729c0 23.561 19.085 42.667 42.667 42.667s42.667-19.106 42.667-42.667v-443.729c0-11.874 0.001-24.166 0.833-27.644 0.708 2.044 12.914 2.044 24.75 2.044h443.75c23.582 0 42.667-19.106 42.667-42.667s-19.085-42.671-42.667-42.671zM759.458 192h-324.25c-52.791 0-81.916 0-109.333 13.897-24.29 12.668-43.997 32.521-55.875 56.145-13.999 27.123-14 56.269-14 109.167v324.25c0 52.894 0.001 82.044 14.167 109.5 11.665 23.249 31.377 43.123 55.292 55.582 27.831 14.127 56.959 14.127 109.75 14.127h324.25c52.791 0 81.916 0 109.333-13.897 24.333-12.689 44.045-32.563 55.919-56.187 13.956-27.085 13.956-56.231 13.956-109.125v-324.25c0-52.894 0-82.044-14.165-109.5-11.708-23.292-31.415-43.145-55.292-55.582-27.831-14.127-56.96-14.127-109.751-14.127zM435.209 789.333c-37.043 0-61.5 0-70.75-4.689-7.71-4.019-14.333-10.625-18.25-18.399-4.877-9.455-4.875-33.851-4.875-70.788v-324.25c0-36.937-0.001-61.333 4.667-70.417 4.126-8.124 10.751-14.75 18.875-18.999 8.832-4.459 33.295-4.459 70.333-4.459h324.25c37.043 0 61.5 0 70.75 4.689 7.71 4.019 14.332 10.645 18.291 18.436 4.834 9.417 4.834 33.813 4.834 70.75v324.25c0 36.937 0 61.333-4.668 70.417-4.126 8.145-10.752 14.749-18.876 18.999-8.832 4.459-33.289 4.459-70.332 4.459h-324.25zM597.333 362.667c-23.582 0-42.667 19.106-42.667 42.667v85.333h-85.333c-23.582 0-42.667 19.106-42.667 42.667s19.085 42.667 42.667 42.667h85.333v85.333c0 23.561 19.085 42.667 42.667 42.667s42.667-19.106 42.667-42.667v-85.333h85.333c23.582 0 42.667-19.106 42.667-42.667s-19.085-42.667-42.667-42.667h-85.333v-85.333c0-23.561-19.085-42.667-42.667-42.667z" />
<glyph unicode="&#xe907;" glyph-name="Airplay" d="M682.667 64h-341.333c-16.418 0-31.333 9.417-38.458 24.166-7.083 14.793-5.123 32.333 5.125 45.167l170.669 213.333c16.252 20.25 50.411 20.25 66.662 0l170.667-213.333c10.253-12.834 12.211-30.374 5.129-45.167-7.121-14.75-22.042-24.166-38.46-24.166zM430.127 149.333h163.746l-81.873 102.374-81.873-102.374zM759.458 192c-23.582 0-43.75 19.085-43.75 42.667s18.044 42.667 41.626 42.667c39.125 0 63.543 0 72.751 4.71 7.748 3.959 14.583 10.79 18.581 18.624 4.668 9.126 4.668 33.54 4.668 70.541v238.916c0 37.001 0 61.418-4.71 70.625-3.959 7.748-10.79 14.586-18.624 18.583-9.126 4.668-33.54 4.667-70.541 4.667h-494.916c-37.001 0-61.418 0.002-70.625-4.708-7.748-3.959-14.586-10.792-18.583-18.625-4.668-9.126-4.667-33.541-4.667-70.542v-238.916c0-37.001-0.002-61.419 4.708-70.626 3.959-7.748 10.792-14.583 18.625-18.581 9.126-4.668 33.541-4.668 70.542-4.668 23.582 0 43.75-19.085 43.75-42.667s-18.043-42.667-41.625-42.667h-2.125c-52.877 0-82.002 0-109.458 14.042-23.748 12.207-43.498 31.957-55.667 55.625-14.084 27.541-14.083 56.666-14.083 109.542v238.916c0 52.877 0 82.002 14.042 109.458 12.207 23.748 31.958 43.498 55.625 55.667 27.541 14.084 56.665 14.083 109.542 14.083h494.916c52.877 0 82.001 0 109.457-14.042 23.748-12.207 43.499-31.958 55.667-55.625 14.084-27.541 14.084-56.665 14.084-109.542v-238.916c0-52.877 0-82.001-14.042-109.457-12.207-23.748-31.957-43.499-55.625-55.667-27.541-14.084-56.666-14.084-109.542-14.084z" />
<glyph unicode="&#xe908;" glyph-name="Alarm" d="M512 64c-211.75 0-384 172.271-384 384s172.25 384 384 384c211.75 0 384-172.271 384-384s-172.25-384-384-384zM512 746.667c-164.668 0-298.667-133.978-298.667-298.667s133.999-298.667 298.667-298.667c164.668 0 298.667 133.978 298.667 298.667s-133.999 298.667-298.667 298.667zM725.333 405.333h-213.333c-23.582 0-42.667 19.106-42.667 42.667v213.333c0 23.561 19.085 42.667 42.667 42.667s42.667-19.106 42.667-42.667v-170.667h170.667c23.582 0 42.667-19.106 42.667-42.667s-19.085-42.667-42.667-42.667zM895.957 722.313c-9.668 0-19.418 3.273-27.418 10.001l-130.581 109.688c-18.044 15.147-20.373 42.060-5.21 60.104 15.125 18.001 42.082 20.394 60.126 5.231l130.586-109.687c18.044-15.147 20.369-42.061 5.205-60.105-8.414-10.044-20.54-15.232-32.708-15.232zM128.042 722.313c-12.207 0-24.29 5.188-32.708 15.228-15.168 18.044-12.835 44.957 5.208 60.104l130.583 109.687c18.167 15.207 45.081 12.749 60.125-5.23 15.168-18.044 12.835-44.958-5.208-60.105l-130.583-109.687c-8-6.724-17.752-9.997-27.416-9.997z" />
<glyph unicode="&#xe909;" glyph-name="Archive" d="M674.125 106.667h-324.25c-52.791 0-81.873 0-109.312 13.897-24.269 12.604-43.982 32.457-55.937 56.124-13.961 27.187-13.958 56.311-13.958 109.188v221.854c0 9.792-0.002 18.398 0.416 26.248-19.332 1.105-32.939 4.064-45.833 12-27.439 17.105-42.769 47.623-40.188 79.768 1.604 23.206 14.502 40.853 37.943 72.896l3.417 4.646c0.145 0.188 2.625 3.479 2.792 3.666 5.79 7.667 10.376 13.709 17.292 19.563 10.436 8.708 22.483 14.792 35.125 17.812 10.33 2.338 18.493 2.339 30.849 2.339h599.041c12.604 0 20.937-0.001 30.605-2.378 12.523-2.812 24.585-8.771 35.106-17.539 7.313-6.187 12.041-12.438 18.022-20.357l5.419-7.333c23.646-32.252 36.668-50.022 38.31-73.792 2.543-31.667-12.796-62.188-40.047-79.169-13.022-8.021-26.641-10.999-45.973-12.104 0.375-7.731 0.375-16.23 0.375-25.873v-222.438c0-52.791 0.004-81.873-14.101-109.291-11.853-23.415-31.565-43.251-55.381-55.625-27.853-14.101-56.939-14.101-109.73-14.101zM281.604 533.333c-11.831 0-24.043 0.001-27.542-0.811 1.937-0.666 1.937-12.937 1.937-24.794v-221.854c0-36.958-0.001-61.376 4.666-70.481 4.083-8.064 10.731-14.686 18.854-18.918 8.853-4.48 33.315-4.48 70.354-4.48h324.25c37.043 0 61.5 0 70.771 4.689 7.71 4.002 14.353 10.645 18.334 18.5 4.77 9.293 4.77 33.647 4.77 70.502v222.438c0 10.001 0 20.292-0.499 25.207h-485.897zM742.396 618.667h69.124c15.898 0 32.209 0.001 40.875 0.794-4.062 6.665-12.416 18.060-20.561 29.187l-3.123 4.25c-3.981 5.291-5.564 7.544-7.125 9.229-1.186-0.666-4.625-0.794-10.061-0.794h-599.040c-5.687-0.021-9.125 0.167-11.979-0.187 0.457-0.585-1.022-2.73-3.292-5.729l-5.333-7.169c-8.021-10.957-16.23-22.187-20.271-28.792 8.661-0.789 24.994-0.789 40.87-0.789h529.917zM597.333 320h-170.667c-23.561 0-42.667 19.106-42.667 42.667s19.106 42.667 42.667 42.667h170.667c23.561 0 42.667-19.106 42.667-42.667s-19.106-42.667-42.667-42.667z" />
<glyph unicode="&#xe90a;" glyph-name="Arrow_Circle_Down_Left" d="M512 21.333c-235.273 0-426.667 191.394-426.667 426.667s191.394 426.667 426.667 426.667c235.273 0 426.667-191.394 426.667-426.667s-191.394-426.667-426.667-426.667zM512 789.333c-188.207 0-341.333-153.126-341.333-341.333s153.126-341.333 341.333-341.333c188.207 0 341.333 153.126 341.333 341.333s-153.126 341.333-341.333 341.333zM554.667 277.333h-170.667c-0.043 0-0.087 0-0.125 0-5.709 0.021-11.165 1.148-16.122 3.209-5.065 2.082-9.812 5.188-13.917 9.293s-7.208 8.853-9.294 13.918c-2.061 4.958-3.187 10.415-3.209 16.124 0 0.043 0 0.085 0 0.124v170.667c0 23.561 19.106 42.667 42.667 42.667s42.667-19.106 42.667-42.667v-67.665l183.168 183.168c16.666 16.666 43.665 16.666 60.335 0s16.666-43.663 0-60.333l-183.168-183.169h67.665c23.561 0 42.667-19.106 42.667-42.667s-19.106-42.667-42.667-42.667z" />
<glyph unicode="&#xe90b;" glyph-name="Arrow_Circle_Down_Right" d="M512 21.333c-235.273 0-426.667 191.394-426.667 426.667s191.394 426.667 426.667 426.667c235.273 0 426.667-191.394 426.667-426.667s-191.394-426.667-426.667-426.667zM512 789.333c-188.207 0-341.333-153.126-341.333-341.333s153.126-341.333 341.333-341.333c188.207 0 341.333 153.126 341.333 341.333s-153.126 341.333-341.333 341.333zM640 277.333h-170.667c-23.561 0-42.667 19.106-42.667 42.667s19.106 42.667 42.667 42.667h67.665l-183.168 183.169c-16.666 16.666-16.666 43.663 0 60.333s43.663 16.666 60.333 0l183.169-183.168v67.665c0 23.561 19.106 42.667 42.667 42.667s42.667-19.106 42.667-42.667v-170.667c0-0.043 0-0.085 0-0.124-0.021-5.709-1.148-11.166-3.209-16.124-2.082-5.065-5.188-9.813-9.293-13.918s-8.853-7.206-13.918-9.293c-4.958-2.061-10.415-3.187-16.124-3.209-0.038 0-0.081 0-0.124 0z" />
<glyph unicode="&#xe90c;" glyph-name="Arrow_Circle_Down" d="M512 21.333c-235.273 0-426.667 191.394-426.667 426.667s191.394 426.667 426.667 426.667c235.273 0 426.667-191.394 426.667-426.667s-191.394-426.667-426.667-426.667zM512 789.333c-188.207 0-341.333-153.126-341.333-341.333s153.126-341.333 341.333-341.333c188.207 0 341.333 153.126 341.333 341.333s-153.126 341.333-341.333 341.333zM512 234.667c-0.043 0-0.085 0-0.124 0-5.709 0.021-11.166 1.148-16.124 3.209-5.065 2.082-9.813 5.188-13.918 9.293l-127.999 128c-16.666 16.666-16.666 43.665 0 60.335s43.663 16.666 60.333 0l55.168-55.168v238.332c0 23.561 19.106 42.667 42.667 42.667s42.667-19.106 42.667-42.667v-238.332l55.168 55.168c16.666 16.666 43.665 16.666 60.335 0s16.666-43.665 0-60.335l-128-128c-4.105-4.105-8.853-7.206-13.918-9.293-4.958-2.061-10.415-3.187-16.124-3.209-0.047 0-0.090 0-0.132 0z" />
<glyph unicode="&#xe90d;" glyph-name="Arrow_Circle_Left" d="M512 21.333c-235.273 0-426.667 191.394-426.667 426.667s191.394 426.667 426.667 426.667c235.273 0 426.667-191.394 426.667-426.667s-191.394-426.667-426.667-426.667zM512 789.333c-188.207 0-341.333-153.126-341.333-341.333s153.126-341.333 341.333-341.333c188.207 0 341.333 153.126 341.333 341.333s-153.126 341.333-341.333 341.333zM469.333 277.333c-10.918 0-21.833 4.169-30.165 12.501l-127.999 128c-4.105 4.105-7.208 8.853-9.294 13.918-2.061 4.958-3.187 10.415-3.209 16.124 0 0.085 0 0.166 0 0.252 0.021 5.709 1.148 11.166 3.209 16.124 2.082 5.065 5.19 9.813 9.294 13.918l127.999 128c16.666 16.666 43.665 16.666 60.335 0s16.666-43.663 0-60.333l-55.168-55.169h238.332c23.561 0 42.667-19.106 42.667-42.667s-19.106-42.667-42.667-42.667h-238.332l55.168-55.168c16.666-16.666 16.666-43.665 0-60.335-8.337-8.329-19.251-12.497-30.17-12.497z" />
<glyph unicode="&#xe90e;" glyph-name="Arrow_Circle_Right" d="M512 21.333c-235.273 0-426.667 191.394-426.667 426.667s191.394 426.667 426.667 426.667c235.273 0 426.667-191.394 426.667-426.667s-191.394-426.667-426.667-426.667zM512 789.333c-188.207 0-341.333-153.126-341.333-341.333s153.126-341.333 341.333-341.333c188.207 0 341.333 153.126 341.333 341.333s-153.126 341.333-341.333 341.333zM554.667 277.333c-10.918 0-21.833 4.169-30.165 12.501-16.666 16.666-16.666 43.665 0 60.335l55.168 55.168h-238.336c-23.561 0-42.667 19.106-42.667 42.667s19.106 42.667 42.667 42.667h238.332l-55.168 55.168c-16.666 16.666-16.666 43.666 0 60.336s43.665 16.666 60.335 0l128-128c4.105-4.105 7.206-8.853 9.293-13.918 2.061-4.958 3.187-10.415 3.209-16.124 0-0.085 0-0.166 0-0.252-0.021-5.709-1.148-11.166-3.209-16.124-2.082-5.065-5.188-9.813-9.293-13.918l-128-128c-8.333-8.337-19.247-12.506-30.165-12.506z" />
<glyph unicode="&#xe90f;" glyph-name="Arrow_Circle_Up_Left" d="M512 21.333c-235.273 0-426.667 191.394-426.667 426.667s191.394 426.667 426.667 426.667c235.273 0 426.667-191.394 426.667-426.667s-191.394-426.667-426.667-426.667zM512 789.333c-188.207 0-341.333-153.126-341.333-341.333s153.126-341.333 341.333-341.333c188.207 0 341.333 153.126 341.333 341.333s-153.126 341.333-341.333 341.333zM640 277.333c-10.918 0-21.833 4.169-30.165 12.501l-183.168 183.168v-67.669c0-23.561-19.106-42.667-42.667-42.667s-42.667 19.106-42.667 42.667v170.667c0 0.043 0 0.087 0 0.125 0.021 5.709 1.148 11.165 3.209 16.122 2.082 5.065 5.19 9.812 9.294 13.917s8.852 7.208 13.917 9.294c4.958 2.061 10.414 3.187 16.122 3.209 0.043 0 0.087 0 0.125 0h170.667c23.561 0 42.667-19.106 42.667-42.667s-19.106-42.667-42.667-42.667h-67.665l183.168-183.168c16.666-16.666 16.666-43.665 0-60.335-8.337-8.329-19.251-12.497-30.17-12.497z" />
<glyph unicode="&#xe910;" glyph-name="Arrow_Circle_Up_Right" d="M512 21.333c-235.273 0-426.667 191.394-426.667 426.667s191.394 426.667 426.667 426.667c235.273 0 426.667-191.394 426.667-426.667s-191.394-426.667-426.667-426.667zM512 789.333c-188.207 0-341.333-153.126-341.333-341.333s153.126-341.333 341.333-341.333c188.207 0 341.333 153.126 341.333 341.333s-153.126 341.333-341.333 341.333zM384 277.333c-10.918 0-21.831 4.169-30.164 12.501-16.666 16.666-16.666 43.665 0 60.335l183.167 183.169h-67.669c-23.561 0-42.667 19.106-42.667 42.667s19.106 42.667 42.667 42.667h170.667c0.043 0 0.085 0 0.124 0 5.709-0.021 11.166-1.147 16.124-3.208 5.065-2.082 9.813-5.19 13.918-9.295s7.206-8.852 9.293-13.917c2.061-4.958 3.187-10.416 3.209-16.125 0-0.043 0-0.084 0-0.122v-170.668c0-23.561-19.106-42.667-42.667-42.667s-42.667 19.106-42.667 42.667v67.665l-183.169-183.168c-8.333-8.333-19.246-12.501-30.164-12.501z" />
<glyph unicode="&#xe911;" glyph-name="Arrow_Circle_Up" d="M512 21.333c-235.273 0-426.667 191.394-426.667 426.667s191.394 426.667 426.667 426.667c235.273 0 426.667-191.394 426.667-426.667s-191.394-426.667-426.667-426.667zM512 789.333c-188.207 0-341.333-153.126-341.333-341.333s153.126-341.333 341.333-341.333c188.207 0 341.333 153.126 341.333 341.333s-153.126 341.333-341.333 341.333zM512 234.667c-23.561 0-42.667 19.106-42.667 42.667v238.332l-55.169-55.168c-16.666-16.666-43.663-16.666-60.333 0s-16.666 43.665 0 60.335l128 128c4.105 4.105 8.853 7.206 13.918 9.293 4.958 2.061 10.415 3.187 16.124 3.209 0.085 0 0.166 0 0.252 0 5.709-0.021 11.166-1.148 16.124-3.209 5.065-2.082 9.813-5.188 13.918-9.293l128-128c16.666-16.666 16.666-43.665 0-60.335s-43.665-16.666-60.335 0l-55.168 55.168v-238.332c0.004-23.561-19.102-42.667-42.662-42.667z" />
<glyph unicode="&#xe912;" glyph-name="Arrow_Down_Left_LG" d="M240.457 133.982c-0.043 0-0.085 0-0.124 0-0.043 0-0.085 0-0.124 0-5.623 0.043-11 1.148-15.898 3.166-5.103 2.082-9.894 5.184-14.042 9.331-4.105 4.105-7.188 8.853-9.271 13.897-2.061 5.022-3.209 10.526-3.209 16.273v301.645c0 23.561 19.106 42.667 42.667 42.667s42.667-19.106 42.667-42.667v-198.686l470.25 469.935c16.666 16.623 43.686 16.645 60.356-0.021 16.644-16.666 16.644-43.684-0.021-60.354l-470.187-469.853h198.647c23.561 0 42.667-19.106 42.667-42.667s-19.106-42.667-42.667-42.667h-301.713z" />
<glyph unicode="&#xe913;" glyph-name="Arrow_Down_Left_MD" d="M640 192h-341.333c-0.043 0-0.087 0-0.125 0-5.709 0.021-11.165 1.148-16.122 3.209-5.065 2.082-9.812 5.188-13.917 9.293s-7.208 8.853-9.294 13.918c-2.061 4.958-3.187 10.415-3.209 16.124 0 0.043 0 0.085 0 0.124v341.334c0 23.561 19.106 42.667 42.667 42.667s42.667-19.106 42.667-42.667v-238.333l353.835 353.838c16.666 16.666 43.665 16.666 60.335 0s16.666-43.668 0-60.338l-353.834-353.834h238.331c23.561 0 42.667-19.106 42.667-42.667s-19.106-42.667-42.667-42.667z" />
<glyph unicode="&#xe914;" glyph-name="Arrow_Down_Left_SM" d="M597.333 234.667h-256c-0.043 0-0.087 0-0.125 0-5.709 0.021-11.165 1.148-16.122 3.209-5.065 2.082-9.812 5.188-13.917 9.293s-7.208 8.853-9.294 13.918c-2.061 4.958-3.187 10.415-3.209 16.124 0 0.043 0 0.085 0 0.124v256.001c0 23.561 19.106 42.667 42.667 42.667s42.667-19.106 42.667-42.667v-152.999l268.501 268.504c16.666 16.666 43.665 16.666 60.335 0s16.666-43.668 0-60.338l-268.501-268.501h152.998c23.561 0 42.667-19.106 42.667-42.667s-19.106-42.667-42.667-42.667z" />
<glyph unicode="&#xe915;" glyph-name="Arrow_Down_LG" d="M512 21.333c-0.043 0-0.085 0-0.124 0-5.709 0.021-11.166 1.148-16.124 3.209-5.065 2.082-9.813 5.188-13.918 9.293l-213.333 213.333c-16.666 16.666-16.666 43.665 0 60.335s43.665 16.666 60.335 0l140.501-140.501v664.998c0 23.561 19.106 42.667 42.667 42.667s42.667-19.106 42.667-42.667v-664.998l140.501 140.501c16.666 16.666 43.665 16.666 60.335 0s16.666-43.665 0-60.335l-213.333-213.333c-4.105-4.105-8.853-7.206-13.918-9.293-4.958-2.061-10.415-3.187-16.124-3.209-0.047 0-0.090 0-0.132 0z" />
<glyph unicode="&#xe916;" glyph-name="Arrow_Down_MD" d="M512 106.667c-0.043 0-0.085 0-0.124 0-5.709 0.021-11.166 1.148-16.124 3.209-5.065 2.082-9.813 5.188-13.918 9.293l-256 256c-16.666 16.666-16.666 43.665 0 60.335s43.663 16.666 60.333 0l183.169-183.168v494.332c0 23.561 19.106 42.667 42.667 42.667s42.667-19.106 42.667-42.667v-494.332l183.168 183.168c16.666 16.666 43.665 16.666 60.335 0s16.666-43.665 0-60.335l-256-256c-4.105-4.105-8.853-7.206-13.918-9.293-4.958-2.061-10.415-3.187-16.124-3.209-0.047 0-0.090 0-0.132 0z" />
<glyph unicode="&#xe917;" glyph-name="Arrow_Down_Right_LG" d="M783.543 133.982h-301.709c-23.561 0-42.667 19.106-42.667 42.667s19.106 42.667 42.667 42.667h198.647l-470.186 469.853c-16.666 16.666-16.665 43.684-0.021 60.354 16.666 16.666 43.686 16.644 60.355 0.021l470.229-469.918-0.043 198.669c0 23.561 19.085 42.667 42.667 42.667 23.561 0 42.667-19.106 42.667-42.667l0.064-301.645v-0.021c0-0.021 0-0.047 0-0.047 0-0.021 0-0.021 0-0.021 0-0.021 0-0.043 0-0.043 0-0.021 0-0.021 0-0.021 0-0.021 0-0.038 0-0.060 0 0 0 0 0-0.021 0 0 0-0.047 0-0.090v-0.021c0-0.021 0-0.021 0-0.043 0 0 0-0.017 0-0.038 0 0 0-0.026 0-0.068v-0.021c0-0.021 0-0.043 0-0.043 0-0.021 0-0.021 0-0.021 0-0.021 0-0.043 0-0.064 0 0 0 0.004 0-0.017 0 0 0-0.021 0-0.043 0 0 0-0.026 0-0.068v-0.021c0-0.021 0-0.043 0-0.064s0-0.038 0-0.060c0 0 0.021-0.026-0.021-0.068v-0.021c0-0.021 0-0.043 0-0.043 0-0.021 0-0.021 0-0.021 0-0.021 0-0.038 0-0.060 0 0 0 0 0-0.021 0 0 0-0.026 0-0.047v-0.021c0-0.043 0-0.064 0-0.064 0-0.021 0-0.038 0-0.060 0 0 0 0 0-0.021 0 0 0-0.026 0-0.047v-0.021c0-0.043 0-0.064 0-0.064 0-0.021 0-0.038 0-0.038 0-0.021 0-0.021 0-0.043 0 0 0-0.026 0-0.047 0 0 0 0 0-0.021 0 0.021-0.021 0.043-0.021-0.064 0-0.043 0-0.060 0-0.060 0-0.021 0-0.047 0-0.068s0-0.043 0-0.064c0 0 0 0 0-0.021v-0.060c0-0.021 0-0.043 0-0.043 0-0.021 0-0.026 0-0.047 0 0 0-0.021 0-0.043 0 0 0 0 0-0.021 0 0.021-0.043 0.026-0.021-0.060 0-0.043 0-0.064 0-0.064 0-0.021 0-0.047 0-0.068s0-0.043 0-0.064c0 0 0 0 0-0.021 0 0 0-0.017 0-0.038v-0.021c0-0.021 0-0.047 0-0.047 0-0.021 0-0.021 0-0.021 0-0.021 0-0.043-0.021-0.064 0-0.021 0-0.038 0-0.060s0-0.047 0-0.068c0-0.043 0-0.085 0-0.085 0-0.021 0-0.038 0-0.060s-0.021-0.047-0.021-0.068c0-0.021 0-0.043 0-0.064s0-0.038 0-0.081c0-0.021 0-0.047 0-0.068 0-0.043-0.021-0.081-0.021-0.119 0 0 0-0.047 0-0.090 0-0.021 0-0.043 0-0.064-0.021-0.269-0.043-0.542-0.085-0.811 0-0.021 0-0.043 0-0.064 0-0.085-0.021-0.183-0.021-0.265 0-0.021 0-0.047-0.021-0.068 0-0.021 0-0.043 0-0.064v-0.021c0-0.021 0-0.038 0-0.038v-0.021c0-0.021-0.021-0.047-0.021-0.068s0-0.043 0-0.064c0-0.021 0-0.038 0-0.060 0.021-0.021-0.021-0.090-0.021-0.149 0-0.021 0-0.038 0-0.060-0.021-0.021-0.021-0.047-0.021-0.068s0-0.043 0-0.064-0.021-0.081-0.021-0.081c0-0.021 0-0.047 0-0.068s0-0.043 0-0.064c0 0.021-0.021 0.026-0.021-0.060 0-0.043 0-0.090-0.021-0.128v-0.021c0-0.021 0-0.038 0-0.060s0-0.047-0.021-0.068c0 0 0 0 0-0.021 0 0 0-0.021 0-0.043v-0.021c0-0.021 0-0.017 0-0.038 0 0-0.043-0.026-0.021-0.068 0-0.021 0-0.021 0-0.021 0-0.021 0-0.043 0-0.043 0-0.021 0-0.021 0-0.021-0.021-0.021-0.021-0.038-0.021-0.060s0-0.047 0-0.068c0 0 0 0 0-0.021 0 0-0.021-0.021-0.021-0.043v-0.021c0-0.021 0-0.043 0-0.043 0-0.021 0-0.017 0-0.017 0-0.021-0.021-0.043-0.021-0.043 0-0.021 0-0.026 0-0.047 0 0 0-0.021 0-0.043 0 0 0 0 0-0.021 0 0 0-0.021-0.021-0.043v-0.021c0-0.021 0-0.017 0-0.038v-0.021c0-0.021-0.043-0.047-0.021-0.090v-0.021c0-0.021 0-0.021 0-0.043 0 0.021-0.021 0.047-0.021-0.060 0 0 0-0.026 0-0.047 0 0 0 0 0-0.021 0 0 0-0.021-0.021-0.043v-0.021c0-0.021 0-0.021 0-0.043v-0.017c0-0.043-0.021-0.047-0.021-0.090v-0.021c0-0.021 0-0.043 0-0.043-0.021-0.021-0.021-0.021-0.021-0.021 0-0.021 0-0.038 0-0.060s0-0.047-0.021-0.068c0 0 0 0 0-0.021 0 0 0-0.021 0-0.043 0 0 0 0 0-0.021 0 0-0.021-0.017-0.021-0.038v-0.021c0-0.021 0-0.021 0-0.043v-0.026c0-0.021-0.021-0.021-0.021-0.043v-0.021c0-0.021 0-0.043 0-0.064-0.021-0.021-0.021-0.038-0.021-0.060s0-0.047-0.021-0.068c0 0 0-0.021 0-0.064v-0.021c0-0.021 0-0.017-0.021-0.038v-0.021c0-0.021 0-0.026 0-0.047v-0.021c-0.021-0.021-0.021-0.021-0.021-0.043v-0.021c0-0.021 0-0.043 0-0.043 0-0.021-0.021-0.017-0.021-0.017 0-0.021 0-0.043 0-0.043 0-0.021 0-0.026 0-0.047 0 0-0.021-0.021-0.021-0.043 0 0 0-0.021 0-0.064v-0.017c-0.021-0.021-0.021-0.021-0.021-0.043v-0.026c0-0.021 0-0.043 0-0.043-0.021-0.021-0.021-0.021-0.021-0.021 0-0.021 0-0.043 0-0.043 0-0.021 0-0.021 0-0.021 0-0.021-0.021-0.038-0.021-0.060s0-0.047 0-0.068c0-0.021 0-0.021-0.021-0.064 0-0.021-0.021-0.038-0.021-0.060v-0.021c0-0.021 0-0.026 0-0.047v-0.021c-0.021-0.021-0.021-0.021-0.021-0.043v-0.021c0-0.043-0.021-0.038-0.021-0.060s0-0.043 0-0.064c-0.021-0.021-0.021-0.047-0.021-0.068s0-0.043-0.021-0.064c0-0.021 0-0.038 0-0.060-0.021-0.021-0.021-0.047-0.021-0.068 0 0 0 0 0-0.021 0 0-0.021-0.021-0.021-0.043 0 0 0 0 0-0.021 0 0 0-0.017 0-0.038s-0.021-0.047-0.021-0.068c0-0.021 0-0.021 0-0.021 0-0.021-0.021-0.043-0.021-0.064s0-0.043-0.021-0.064c0-0.021 0-0.038 0-0.060-0.021-0.085-0.043-0.171-0.064-0.256 0-0.021-0.021-0.043-0.021-0.064 0 0 0.021-0.038-0.021-0.081-0.021-0.085-0.043-0.171-0.064-0.256 0-0.064-0.021-0.124-0.043-0.188-0.499-2.001-1.148-3.938-1.916-5.811-2.082-5.043-5.167-9.792-9.271-13.897-4.002-3.981-8.563-7.023-13.457-9.084-4.834-2.082-10.125-3.273-15.689-3.396h-0.021c-0.021 0-0.043 0-0.064 0-0.021-0.021-0.043-0.021-0.064-0.021s-0.043 0-0.064 0c-0.064 0-0.102 0-0.145 0-0.021 0-0.043 0-0.064 0-0.043 0-0.085 0-0.085 0-0.021 0-0.043 0-0.064 0s-0.043 0-0.064 0h-0.021c-0.021 0-0.043 0-0.043 0-0.021 0-0.021 0-0.021 0-0.021 0-0.043 0-0.064 0 0 0 0 0-0.021 0s-0.021 0-0.043 0c0 0-0.021 0-0.064 0h-0.021c-0.021 0-0.043 0-0.043 0-0.021 0-0.043 0-0.043 0 0.021 0.196 0.021 0.201 0.004 0.201z" />
<glyph unicode="&#xe918;" glyph-name="Arrow_Down_Right_MD" d="M725.333 192h-341.334c-23.561 0-42.667 19.106-42.667 42.667s19.106 42.667 42.667 42.667h238.333l-353.835 353.833c-16.666 16.666-16.666 43.668 0 60.338s43.663 16.666 60.333 0l353.837-353.84v238.335c0 23.561 19.106 42.667 42.667 42.667s42.667-19.106 42.667-42.667v-341.332c0-0.043 0-0.085 0-0.124-0.021-5.709-1.148-11.17-3.209-16.128-2.082-5.065-5.188-9.813-9.293-13.918s-8.853-7.202-13.918-9.289c-4.958-2.061-10.415-3.187-16.124-3.209-0.038 0-0.081 0-0.124 0z" />
<glyph unicode="&#xe919;" glyph-name="Arrow_Down_Right_SM" d="M682.667 234.667h-256.001c-23.561 0-42.667 19.106-42.667 42.667s19.106 42.667 42.667 42.667h152.999l-268.502 268.499c-16.666 16.666-16.666 43.668 0 60.338s43.663 16.666 60.333 0l268.503-268.507v153.003c0 23.56 19.106 42.666 42.667 42.666s42.667-19.106 42.667-42.666v-256c0-0.043 0-0.085 0-0.124-0.021-5.709-1.148-11.17-3.209-16.128-2.082-5.065-5.188-9.813-9.293-13.918s-8.853-7.202-13.918-9.289c-4.958-2.061-10.415-3.187-16.124-3.209-0.038 0-0.081 0-0.124 0z" />
<glyph unicode="&#xe91a;" glyph-name="Arrow_Down_SM" d="M512 192c-0.043 0-0.085 0-0.124 0-5.709 0.021-11.166 1.148-16.124 3.209-5.065 2.082-9.813 5.188-13.918 9.293l-170.666 170.667c-16.666 16.666-16.666 43.665 0 60.335s43.663 16.666 60.333 0l97.836-97.835v323.665c0 23.561 19.106 42.667 42.667 42.667s42.667-19.106 42.667-42.667v-323.665l97.835 97.835c16.666 16.666 43.665 16.666 60.335 0s16.666-43.665 0-60.335l-170.667-170.667c-4.105-4.105-8.853-7.206-13.918-9.293-4.958-2.061-10.415-3.187-16.124-3.209-0.047 0-0.090 0-0.132 0z" />
<glyph unicode="&#xe91b;" glyph-name="Arrow_Down_Up" d="M682.667 106.667c-23.561 0-42.667 19.106-42.667 42.667v494.333l-55.168-55.172c-16.666-16.666-43.665-16.666-60.335 0s-16.666 43.668 0 60.338l128 128c4.105 4.105 8.853 7.205 13.918 9.292 4.958 2.061 10.415 3.187 16.124 3.209 0.085 0 0.166 0 0.252 0 5.709-0.021 11.166-1.148 16.124-3.209 5.065-2.082 9.813-5.187 13.918-9.292l128-128c16.666-16.666 16.666-43.668 0-60.338s-43.665-16.666-60.335 0l-55.168 55.172v-494.333c0.004-23.561-19.102-42.667-42.662-42.667zM341.334 106.667c-0.043 0-0.085 0-0.124 0-5.709 0.021-11.166 1.148-16.124 3.209-5.065 2.082-9.813 5.188-13.918 9.293l-128 128c-16.666 16.666-16.666 43.669 0 60.339s43.665 16.666 60.335 0l55.168-55.172v494.332c0 23.561 19.106 42.667 42.667 42.667s42.667-19.106 42.667-42.667v-494.332l55.168 55.172c16.666 16.666 43.665 16.666 60.335 0s16.666-43.669 0-60.339l-127.999-128c-4.105-4.105-8.854-7.206-13.918-9.293-4.958-2.061-10.415-3.187-16.124-3.209-0.047 0-0.090 0-0.133 0z" />
<glyph unicode="&#xe91c;" glyph-name="Arrow_Left_LG" d="M341.333 192c-10.918 0-21.833 4.169-30.165 12.501l-213.333 213.333c-4.105 4.105-7.206 8.853-9.293 13.918-2.061 4.958-3.187 10.411-3.209 16.119 0 0.085 0 0.166 0 0.252 0.021 5.709 1.148 11.17 3.209 16.128 2.082 5.065 5.188 9.809 9.293 13.914l213.333 213.335c16.666 16.666 43.665 16.666 60.335 0s16.666-43.663 0-60.333l-140.501-140.501h664.999c23.561 0 42.667-19.106 42.667-42.667s-19.106-42.667-42.667-42.667h-664.999l140.501-140.506c16.666-16.666 16.666-43.661 0-60.331-8.337-8.329-19.251-12.497-30.169-12.497z" />
<glyph unicode="&#xe91d;" glyph-name="Arrow_Left_MD" d="M469.333 149.333c-10.918 0-21.833 4.169-30.165 12.501l-255.999 256c-4.105 4.105-7.208 8.853-9.294 13.918-2.061 4.958-3.187 10.411-3.209 16.119 0 0.085 0 0.166 0 0.252 0.021 5.709 1.148 11.17 3.209 16.128 2.082 5.065 5.19 9.809 9.294 13.914l255.999 256.002c16.666 16.666 43.665 16.666 60.335 0s16.666-43.663 0-60.333l-183.167-183.168h494.331c23.561 0 42.667-19.106 42.667-42.667s-19.106-42.667-42.667-42.667h-494.331l183.167-183.172c16.666-16.666 16.666-43.661 0-60.331-8.337-8.329-19.251-12.497-30.17-12.497z" />
<glyph unicode="&#xe91e;" glyph-name="Arrow_Left_Right" d="M682.667 106.662c-10.918 0-21.833 4.169-30.165 12.501-16.666 16.666-16.666 43.665 0 60.339l55.168 55.164h-494.336c-23.561 0-42.667 19.106-42.667 42.667s19.106 42.667 42.667 42.667h494.332l-55.168 55.168c-16.666 16.666-16.666 43.661 0 60.335 16.666 16.67 43.665 16.666 60.335 0l128-128c4.105-4.105 7.206-8.853 9.293-13.918 2.061-4.958 3.187-10.419 3.209-16.128 0-0.085 0-0.162 0-0.247-0.021-5.709-1.148-11.166-3.209-16.124-2.082-5.065-5.188-9.813-9.293-13.918l-128-128c-8.333-8.337-19.247-12.506-30.165-12.506zM341.333 447.996c-10.918 0-21.833 4.169-30.165 12.501l-128 127.999c-4.105 4.105-7.206 8.852-9.293 13.917-2.061 4.958-3.187 10.416-3.209 16.125 0 0.085 0 0.17 0 0.255 0.021 5.709 1.148 11.162 3.209 16.12 2.082 5.065 5.188 9.817 9.293 13.922l128 128c16.666 16.666 43.665 16.666 60.335 0s16.666-43.668 0-60.338l-55.168-55.167h494.332c23.561 0 42.667-19.106 42.667-42.667s-19.106-42.667-42.667-42.667h-494.332l55.168-55.168c16.666-16.666 16.666-43.669 0-60.339-8.337-8.329-19.251-12.493-30.169-12.493z" />
<glyph unicode="&#xe91f;" glyph-name="Arrow_Left_SM" d="M469.333 234.667c-10.918 0-21.833 4.169-30.165 12.501l-170.665 170.667c-4.105 4.105-7.208 8.853-9.294 13.918-2.061 4.958-3.187 10.411-3.209 16.119 0 0.085 0 0.166 0 0.252 0.021 5.709 1.148 11.17 3.209 16.128 2.082 5.065 5.19 9.809 9.294 13.914l170.665 170.669c16.666 16.666 43.665 16.666 60.335 0s16.666-43.663 0-60.333l-97.834-97.834h323.664c23.561 0 42.667-19.106 42.667-42.667s-19.106-42.667-42.667-42.667h-323.664l97.834-97.839c16.666-16.666 16.666-43.661 0-60.331-8.337-8.329-19.251-12.497-30.17-12.497z" />
<glyph unicode="&#xe920;" glyph-name="Arrow_Reload_02" d="M810.667 21.333c-23.561 0-42.667 19.106-42.667 42.667v97.916c-23.125-20.668-48.811-38.583-76.625-53.269-63.876-33.813-135.394-48.853-206.852-43.669-71.957 5.291-140.603 30.357-198.497 72.482-57.894 42.061-102.874 99.648-130.044 166.485-8.875 21.811 1.626 46.703 23.458 55.578 21.73 8.977 46.708-1.604 55.582-23.458 21.167-52.062 56.167-96.875 101.189-129.583 45.043-32.794 98.478-52.271 154.563-56.418 55.479-4.002 111.002 7.689 160.708 34.001 25.647 13.564 48.998 30.626 69.419 50.603h-123.567c-23.561 0-42.667 19.106-42.667 42.667s19.106 42.667 42.667 42.667h213.333c23.561 0 42.667-19.106 42.667-42.667v-213.333c0-23.561-19.106-42.667-42.667-42.667zM828.523 533.312c-16.853 0-32.811 10.045-39.543 26.626-21.167 52.019-56.145 96.832-101.21 129.604-45.022 32.772-98.458 52.27-154.5 56.396-55.501 4.019-111.023-7.687-160.751-34-25.668-13.564-49.020-30.628-69.457-50.604h123.605c23.561 0 42.667-19.106 42.667-42.667s-19.106-42.667-42.667-42.667h-213.332c-23.561 0-42.667 19.106-42.667 42.667v213.333c0 23.561 19.106 42.667 42.667 42.667s42.667-19.106 42.667-42.667v-97.875c23.125 20.646 48.832 38.564 76.625 53.25 63.876 33.813 135.522 48.941 206.895 43.646 71.936-5.291 140.561-30.354 198.46-72.479 57.916-42.125 102.895-99.69 130.044-166.484 8.875-21.811-1.626-46.703-23.458-55.578-5.252-2.146-10.692-3.167-16.043-3.167z" />
<glyph unicode="&#xe921;" glyph-name="Arrow_Right_LG" d="M682.667 192c-10.918 0-21.833 4.164-30.165 12.497-16.666 16.666-16.666 43.669 0 60.339l140.501 140.501h-665.003c-23.561 0-42.667 19.106-42.667 42.667s19.106 42.667 42.667 42.667h664.998l-140.501 140.5c-16.666 16.666-16.666 43.663 0 60.333s43.665 16.666 60.335 0l213.333-213.335c4.105-4.105 7.206-8.849 9.293-13.914 2.061-4.958 3.187-10.419 3.209-16.128 0-0.085 0-0.162 0-0.247-0.021-5.709-1.148-11.17-3.209-16.128-2.082-5.065-5.188-9.809-9.293-13.914l-213.333-213.333c-8.333-8.337-19.247-12.506-30.165-12.506z" />
<glyph unicode="&#xe922;" glyph-name="Arrow_Right_MD" d="M554.667 149.333c-10.918 0-21.833 4.164-30.165 12.497-16.666 16.666-16.666 43.669 0 60.339l183.168 183.168h-494.336c-23.561 0-42.667 19.106-42.667 42.667s19.106 42.667 42.667 42.667h494.332l-183.168 183.167c-16.666 16.666-16.666 43.663 0 60.333s43.665 16.666 60.335 0l256-256.001c4.105-4.105 7.206-8.849 9.293-13.914 2.061-4.958 3.187-10.419 3.209-16.128 0-0.085 0-0.162 0-0.247-0.021-5.709-1.148-11.17-3.209-16.128-2.082-5.065-5.188-9.809-9.293-13.914l-256-256c-8.333-8.337-19.247-12.506-30.165-12.506z" />
<glyph unicode="&#xe923;" glyph-name="Arrow_Right_SM" d="M554.667 234.667c-10.918 0-21.833 4.164-30.165 12.497-16.666 16.666-16.666 43.669 0 60.339l97.835 97.835h-323.669c-23.561 0-42.667 19.106-42.667 42.667s19.106 42.667 42.667 42.667h323.665l-97.835 97.833c-16.666 16.666-16.666 43.663 0 60.333s43.665 16.666 60.335 0l170.667-170.668c4.105-4.105 7.206-8.849 9.293-13.914 2.061-4.958 3.187-10.419 3.209-16.128 0-0.085 0-0.162 0-0.247-0.021-5.709-1.148-11.17-3.209-16.128-2.082-5.065-5.188-9.809-9.293-13.914l-170.667-170.667c-8.333-8.337-19.247-12.506-30.165-12.506z" />
<glyph unicode="&#xe924;" glyph-name="Arrow_Sub_Down_Left" d="M469.333 21.333c-10.918 0-21.833 4.169-30.165 12.501l-213.332 213.333c-4.105 4.105-7.208 8.853-9.294 13.918-2.061 4.958-3.187 10.415-3.209 16.124 0 0.085 0 0.166 0 0.252 0.021 5.709 1.148 11.166 3.209 16.124 2.082 5.065 5.19 9.813 9.294 13.918l213.332 213.333c16.666 16.665 43.665 16.665 60.335 0s16.666-43.665 0-60.335l-140.5-140.501h229.917c36.937 0 61.333 0 70.498 4.646 8 4.105 14.498 10.603 18.645 18.709 4.604 9.062 4.604 33.455 4.604 70.396v418.249c0 23.561 19.106 42.667 42.667 42.667s42.667-19.106 42.667-42.667v-418.249c0-52.727 0-81.792-13.939-109.167-12.395-24.269-31.71-43.584-55.876-55.936-27.477-13.982-56.538-13.982-109.269-13.982h-229.918l140.501-140.501c16.666-16.666 16.666-43.665 0-60.335-8.333-8.329-19.247-12.497-30.165-12.497z" />
<glyph unicode="&#xe925;" glyph-name="Arrow_Sub_Down_Right" d="M554.667 21.333c-10.918 0-21.833 4.169-30.165 12.501-16.666 16.666-16.666 43.665 0 60.335l140.501 140.501h-229.918c-52.769 0-81.856 0-109.21 13.939-24.188 12.356-43.521 31.667-55.898 55.876-13.978 27.473-13.977 56.576-13.977 109.389v418.125c0 23.561 19.106 42.667 42.667 42.667s42.667-19.106 42.667-42.667v-418.125c0-37.022 0-61.457 4.646-70.626 4.126-8.021 10.581-14.498 18.667-18.624 9.084-4.625 33.482-4.625 70.439-4.625h229.918l-140.501 140.501c-16.666 16.666-16.666 43.665 0 60.335s43.665 16.665 60.335 0l213.333-213.333c4.105-4.105 7.206-8.853 9.293-13.918 2.061-4.958 3.187-10.415 3.209-16.124 0-0.085 0-0.166 0-0.252-0.021-5.709-1.148-11.166-3.209-16.124-2.082-5.065-5.188-9.813-9.293-13.918l-213.333-213.333c-8.337-8.333-19.251-12.501-30.17-12.501z" />
<glyph unicode="&#xe926;" glyph-name="Arrow_Sub_Left_Down" d="M362.666 170.667c-0.043 0-0.087 0-0.125 0-5.709 0.021-11.165 1.148-16.122 3.209-5.065 2.082-9.812 5.188-13.917 9.293l-213.333 213.333c-16.666 16.666-16.666 43.665 0 60.335s43.663 16.666 60.333 0l140.503-140.501v229.789c0 52.813-0.002 81.916 13.937 109.291 12.373 24.269 31.712 43.605 55.917 55.957 27.439 13.956 56.541 13.957 109.354 13.957h418.121c23.561 0 42.667-19.106 42.667-42.667s-19.106-42.667-42.667-42.667h-418.125c-37.022 0-61.457-0.001-70.626-4.647-8.021-4.105-14.499-10.581-18.625-18.667-4.625-9.105-4.625-33.539-4.625-70.561v-229.789l140.502 140.501c16.666 16.666 43.665 16.666 60.335 0s16.666-43.665 0-60.335l-213.335-213.333c-4.105-4.105-8.852-7.206-13.917-9.293-4.958-2.061-10.416-3.187-16.125-3.209-0.043 0.004-0.085 0.004-0.128 0.004z" />
<glyph unicode="&#xe927;" glyph-name="Arrow_Sub_Left_Up" d="M874.667 170.667h-418.249c-52.768 0-81.856 0-109.209 13.939-24.188 12.356-43.521 31.667-55.898 55.876-13.978 27.477-13.976 56.585-13.976 109.397v229.791l-140.503-140.503c-16.666-16.666-43.663-16.666-60.333 0s-16.666 43.665 0 60.335l213.333 213.334c4.105 4.105 8.852 7.207 13.917 9.293 4.958 2.061 10.416 3.187 16.125 3.208 0.085 0 0.167 0 0.253 0 5.709-0.021 11.165-1.147 16.122-3.208 5.065-2.082 9.812-5.189 13.917-9.293l213.334-213.334c16.666-16.666 16.666-43.665 0-60.335s-43.665-16.666-60.335 0l-140.501 140.503v-229.791c0-37.022 0.002-61.457 4.648-70.626 4.126-8.021 10.581-14.498 18.667-18.624 9.084-4.625 33.48-4.625 70.437-4.625h418.253c23.561 0 42.667-19.106 42.667-42.667s-19.106-42.671-42.667-42.671z" />
<glyph unicode="&#xe928;" glyph-name="Arrow_Sub_Right_Down" d="M682.667 149.333c-0.043 0-0.085 0-0.124 0-5.709 0.021-11.166 1.148-16.124 3.209-5.065 2.082-9.813 5.188-13.918 9.293l-213.333 213.333c-16.664 16.666-16.664 43.665 0 60.335 16.666 16.67 43.665 16.666 60.335 0l140.501-140.501v229.939c0 36.937 0 61.333-4.646 70.438-4.105 8.064-10.581 14.52-18.709 18.688-9.067 4.599-33.502 4.599-70.524 4.599h-418.125c-23.561 0-42.667 19.106-42.667 42.667s19.106 42.667 42.667 42.667h418.125c52.813 0 81.916 0 109.291-13.94 24.311-12.416 43.627-31.748 55.957-55.915 13.961-27.375 13.961-56.439 13.961-109.209v-229.939l140.501 140.501c16.666 16.666 43.665 16.666 60.335 0s16.666-43.665 0-60.335l-213.333-213.333c-4.105-4.105-8.853-7.206-13.918-9.293-4.958-2.061-10.415-3.187-16.124-3.209-0.043 0.004-0.085 0.004-0.128 0.004z" />
<glyph unicode="&#xe929;" glyph-name="Arrow_Sub_Right_Up" d="M546.249 192h-418.249c-23.561 0-42.667 19.106-42.667 42.667s19.106 42.667 42.667 42.667h418.249c36.937 0 61.333 0 70.498 4.646 8 4.105 14.498 10.603 18.645 18.709 4.608 9.062 4.608 33.455 4.608 70.374v229.94l-140.501-140.503c-16.666-16.666-43.665-16.666-60.335 0s-16.665 43.665 0 60.335l213.333 213.334c4.105 4.105 8.853 7.207 13.918 9.293 4.958 2.061 10.415 3.187 16.124 3.208 0.085 0 0.166 0 0.252 0 5.709-0.021 11.166-1.147 16.124-3.208 5.065-2.082 9.813-5.189 13.918-9.293l213.333-213.334c16.666-16.666 16.666-43.665 0-60.335s-43.665-16.666-60.335 0l-140.501 140.503v-229.94c0-52.727 0-81.771-13.939-109.146-12.395-24.269-31.71-43.584-55.876-55.936-27.473-13.982-56.533-13.982-109.265-13.982z" />
<glyph unicode="&#xe92a;" glyph-name="Arrow_Sub_Up_Left" d="M725.333 21.338c-23.561 0-42.667 19.106-42.667 42.667v418.249c0 36.958 0 61.354-4.646 70.459-4.105 8.064-10.581 14.519-18.709 18.688-9.062 4.604-33.498 4.604-70.519 4.604h-229.789l140.5-140.5c16.666-16.666 16.666-43.665 0-60.335s-43.665-16.666-60.335 0l-213.332 213.333c-4.105 4.105-7.208 8.852-9.294 13.917-2.061 4.958-3.187 10.416-3.209 16.125 0 0.085 0 0.167 0 0.253 0.021 5.709 1.148 11.165 3.209 16.122 2.082 5.065 5.19 9.812 9.294 13.917l213.332 213.333c16.666 16.666 43.665 16.666 60.335 0s16.666-43.663 0-60.333l-140.5-140.503h229.789c52.813 0 81.916 0.002 109.291-13.937 24.311-12.416 43.627-31.75 55.957-55.917 13.961-27.371 13.961-56.452 13.961-109.225v-418.249c0-23.561-19.106-42.667-42.667-42.667z" />
<glyph unicode="&#xe92b;" glyph-name="Arrow_Sub_Up_Right" d="M298.667 21.333c-23.561 0-42.667 19.106-42.667 42.667v418.125c0 52.815 0.001 81.917 13.94 109.292 12.373 24.269 31.709 43.605 55.914 55.957 27.439 13.961 56.541 13.961 109.354 13.961h229.79l-140.501 140.501c-16.666 16.666-16.666 43.665 0 60.335s43.665 16.666 60.335 0l213.333-213.333c4.105-4.105 7.206-8.853 9.293-13.918 2.061-4.958 3.187-10.415 3.209-16.124 0-0.085 0-0.166 0-0.251-0.021-5.709-1.148-11.166-3.209-16.124-2.082-5.065-5.188-9.813-9.293-13.918l-213.333-213.335c-16.666-16.666-43.665-16.666-60.335 0s-16.666 43.665 0 60.335l140.501 140.503h-229.79c-37.022 0-61.456 0.001-70.625-4.646-8.021-4.105-14.499-10.581-18.625-18.667-4.625-9.109-4.625-33.547-4.625-70.569v-418.125c0-23.561-19.106-42.667-42.667-42.667z" />
<glyph unicode="&#xe92c;" glyph-name="Arrow_Undo_Down_Left" d="M298.667 106.667c-10.918 0-21.831 4.169-30.164 12.501l-170.667 170.667c-4.105 4.105-7.208 8.853-9.294 13.918-2.061 4.958-3.187 10.415-3.209 16.124 0 0.085 0 0.166 0 0.252 0.021 5.709 1.148 11.166 3.209 16.124 2.082 5.065 5.19 9.813 9.294 13.918l170.667 170.667c16.666 16.665 43.663 16.665 60.333 0s16.666-43.665 0-60.335l-97.833-97.835h451.664c94.106 0 170.667 76.561 170.667 170.667s-76.561 170.667-170.667 170.667h-213.333c-23.561 0-42.667 19.106-42.667 42.667s19.106 42.667 42.667 42.667h213.333c141.167 0 256-114.833 256-256s-114.833-256-256-256h-451.664l97.833-97.835c16.666-16.666 16.666-43.665 0-60.335-8.337-8.329-19.251-12.497-30.169-12.497z" />
<glyph unicode="&#xe92d;" glyph-name="Arrow_Undo_Down_Right" d="M725.333 106.667c-10.918 0-21.833 4.169-30.165 12.501-16.666 16.666-16.666 43.665 0 60.335l97.835 97.835h-451.669c-141.167 0-256 114.833-256 256.001s114.833 256 256 256h213.333c23.561 0 42.667-19.106 42.667-42.667s-19.106-42.667-42.667-42.667h-213.333c-94.106 0-170.667-76.561-170.667-170.667s76.561-170.668 170.667-170.668h451.665l-97.835 97.835c-16.666 16.666-16.666 43.665 0 60.335s43.665 16.666 60.335 0l170.667-170.667c4.105-4.105 7.206-8.853 9.293-13.918 2.061-4.958 3.187-10.415 3.209-16.124 0-0.085 0-0.166 0-0.252-0.021-5.709-1.148-11.166-3.209-16.124-2.082-5.065-5.188-9.813-9.293-13.918l-170.667-170.667c-8.333-8.337-19.247-12.506-30.165-12.506z" />
<glyph unicode="&#xe92e;" glyph-name="Arrow_Undo_Up_Left" d="M682.667 106.671h-213.333c-23.561 0-42.667 19.106-42.667 42.667s19.106 42.667 42.667 42.667h213.333c94.106 0 170.667 76.561 170.667 170.667s-76.561 170.666-170.667 170.666h-451.664l97.833-97.834c16.666-16.666 16.666-43.665 0-60.335s-43.663-16.666-60.333 0l-170.667 170.666c-4.105 4.105-7.208 8.852-9.294 13.917-2.061 4.958-3.187 10.416-3.209 16.125 0 0.085 0 0.167 0 0.253 0.021 5.709 1.148 11.165 3.209 16.122 2.082 5.065 5.19 9.812 9.294 13.917l170.667 170.667c16.666 16.666 43.663 16.666 60.333 0s16.666-43.663 0-60.333l-97.833-97.836h451.664c141.167 0 256-114.831 256-255.998s-114.833-255.996-256-255.996z" />
<glyph unicode="&#xe92f;" glyph-name="Arrow_Undo_Up_Right" d="M554.667 106.662h-213.333c-141.167 0-256 114.833-256 256s114.833 256.001 256 256.001h451.665l-97.835 97.836c-16.666 16.666-16.666 43.663 0 60.333s43.665 16.666 60.335 0l170.667-170.667c4.105-4.105 7.206-8.852 9.293-13.917 2.061-4.958 3.187-10.416 3.209-16.125 0-0.085 0-0.167 0-0.253-0.021-5.709-1.148-11.165-3.209-16.122-2.082-5.065-5.188-9.812-9.293-13.917l-170.667-170.669c-16.666-16.666-43.665-16.666-60.335 0s-16.666 43.665 0 60.335l97.835 97.836h-451.665c-94.106 0-170.667-76.563-170.667-170.668s76.561-170.667 170.667-170.667h213.333c23.561 0 42.667-19.106 42.667-42.667s-19.106-42.671-42.667-42.671z" />
<glyph unicode="&#xe930;" glyph-name="Arrow_Up_Left_LG" d="M783.543 133.978c-10.918 0-21.833 4.169-30.165 12.48l-470.251 469.938v-198.689c0-23.561-19.106-42.667-42.667-42.667s-42.667 19.106-42.667 42.667v301.647c0 5.751 1.148 11.253 3.209 16.271 2.082 5.043 5.167 9.791 9.272 13.896 4.019 4.002 8.643 7.060 13.563 9.146 5.043 2.125 10.565 3.311 16.376 3.354 0.043 0 0.085 0 0.124 0 0.043 0 0.085 0 0.124 0h301.709c23.561 0 42.667-19.106 42.667-42.667s-19.106-42.667-42.667-42.667h-198.647l470.187-469.852c16.666-16.666 16.666-43.686 0.021-60.356-8.333-8.333-19.273-12.501-30.187-12.501z" />
<glyph unicode="&#xe931;" glyph-name="Arrow_Up_Left_MD" d="M725.333 192c-10.918 0-21.833 4.169-30.165 12.501l-353.835 353.837v-238.339c0-23.561-19.106-42.667-42.667-42.667s-42.667 19.106-42.667 42.667v341.333c0 0.043 0 0.087 0 0.125 0.021 5.709 1.148 11.167 3.209 16.125 2.082 5.065 5.19 9.812 9.294 13.917s8.852 7.205 13.917 9.292c4.958 2.061 10.414 3.187 16.122 3.209 0.043 0 0.087 0 0.125 0h341.333c23.561 0 42.667-19.106 42.667-42.667s-19.106-42.667-42.667-42.667h-238.331l353.834-353.835c16.666-16.666 16.666-43.669 0-60.339-8.337-8.329-19.251-12.493-30.17-12.493z" />
<glyph unicode="&#xe932;" glyph-name="Arrow_Up_Left_SM" d="M682.667 234.667c-10.918 0-21.833 4.169-30.165 12.501l-268.501 268.506v-153.007c0-23.561-19.106-42.667-42.667-42.667s-42.667 19.106-42.667 42.667v256c0 0.043 0 0.087 0 0.125 0.021 5.709 1.148 11.167 3.209 16.125 2.082 5.065 5.19 9.812 9.294 13.917s8.852 7.205 13.917 9.292c4.958 2.061 10.414 3.187 16.122 3.209 0.043 0 0.087 0 0.125 0h256c23.561 0 42.667-19.106 42.667-42.667s-19.106-42.667-42.667-42.667h-152.998l268.501-268.501c16.666-16.666 16.666-43.669 0-60.339-8.337-8.329-19.251-12.493-30.17-12.493z" />
<glyph unicode="&#xe933;" glyph-name="Arrow_Up_LG" d="M512 21.333c-23.561 0-42.667 19.106-42.667 42.667v664.998l-140.502-140.5c-16.666-16.666-43.665-16.666-60.335 0s-16.666 43.663 0 60.333l213.333 213.333c4.105 4.105 8.853 7.208 13.918 9.294 4.958 2.061 10.415 3.187 16.124 3.209 0.085 0 0.166 0 0.252 0 5.709-0.021 11.166-1.148 16.124-3.209 5.065-2.082 9.813-5.19 13.918-9.294l213.333-213.333c16.666-16.666 16.666-43.663 0-60.333s-43.665-16.666-60.335 0l-140.501 140.5v-664.998c0.004-23.561-19.102-42.667-42.662-42.667z" />
<glyph unicode="&#xe934;" glyph-name="Arrow_Up_MD" d="M512 106.667c-23.561 0-42.667 19.106-42.667 42.667v494.331l-183.168-183.167c-16.666-16.666-43.663-16.666-60.333 0s-16.666 43.665 0 60.335l255.999 255.999c4.105 4.105 8.853 7.208 13.918 9.294 4.958 2.061 10.415 3.187 16.124 3.209 0.085 0 0.166 0 0.252 0 5.709-0.021 11.166-1.148 16.124-3.209 5.065-2.082 9.813-5.19 13.918-9.294l256-255.999c16.666-16.666 16.666-43.665 0-60.335s-43.665-16.666-60.335 0l-183.168 183.167v-494.331c0.004-23.561-19.102-42.667-42.662-42.667z" />
<glyph unicode="&#xe935;" glyph-name="Arrow_Up_Right_LG" d="M240.521 133.982c-10.918 0-21.855 4.164-30.188 12.497-16.644 16.666-16.643 43.686 0.022 60.356l470.165 469.854h-198.647c-23.561 0-42.667 19.106-42.667 42.667s19.106 42.667 42.667 42.667h301.602c0.252 0.102 0.606 0.021 0.939 0 0 0 0.043 0 0.085 0 5.376-0.124 10.5-1.23 15.228-3.167 5.103-2.082 9.894-5.186 14.042-9.333 4.083-4.105 7.168-8.811 9.25-13.854 0 0 0 0 0-0.021 0 0 0.021 0 0.021-0.021 1.647-4.002 2.709-8.29 3.063-12.791 0.021-0.124 0.021-0.231 0.043-0.333 0-0.064 0-0.103 0-0.146 0-0.021 0-0.041 0-0.063s0-0.041 0-0.062c0.043-0.043 0.021-0.086 0.021-0.146 0-0.021 0-0.046 0-0.067s0-0.041 0-0.063c0-0.021 0-0.041 0-0.083 0.021-0.021 0.021-0.041 0.021-0.063s0-0.046 0-0.067c0-0.021 0-0.041 0-0.063v-0.021c0-0.021 0-0.041 0-0.062s0-0.047 0-0.068c0 0 0 0 0-0.021 0 0 0-0.020 0.021-0.041v-0.021c0-0.021 0-0.042 0-0.042 0-0.021 0-0.021 0-0.021 0-0.043 0-0.087 0-0.125v-0.021c0-0.043 0-0.067 0-0.067 0-0.021 0-0.042 0-0.042 0-0.021 0-0.020 0-0.042 0 0 0-0.020 0-0.041 0 0 0 0 0-0.021 0 0 0-0.020 0.021-0.042v-0.021c0-0.021 0-0.047 0-0.047v-0.021c0-0.021 0-0.041 0-0.063s0-0.041 0-0.062v-0.021c0-0.021 0-0.026 0-0.047v-0.021c0-0.021 0-0.041 0-0.041 0-0.021 0-0.021 0-0.021 0-0.021 0-0.041 0-0.063v-0.020c0-0.043 0-0.046 0-0.089v-0.021c0-0.021 0-0.020 0-0.041 0 0 0-0.020 0-0.042 0 0 0 0 0-0.021 0.021-0.021 0-0.089 0.021-0.068 0-0.021 0-0.041 0-0.041 0-0.021 0-0.020 0-0.042v-0.021c0-0.021 0-0.041 0-0.041 0-0.021 0-0.026 0-0.047 0 0 0-0.020 0-0.042 0 0 0-0.020 0-0.062v-0.021c0-0.021 0-0.020 0-0.042 0 0 0-0.020 0-0.042v-0.026c0-0.043 0-0.041 0-0.083v-0.021c0-0.021 0-0.020 0-0.041 0 0 0-0.020 0-0.042 0 0 0-0.025 0-0.068 0-0.021 0-0.020 0-0.041v-0.021c0-0.021 0-0.042 0-0.042 0-0.021 0-0.021 0-0.021 0-0.021 0-0.047 0-0.047 0-0.021 0-0.020 0-0.041 0 0 0-0.020 0-0.042v-0.021l-0.043-301.646c0-23.561-19.106-42.667-42.667-42.667s-42.667 19.106-42.667 42.667l0.021 198.667-470.208-469.916c-8.337-8.247-19.251-12.416-30.169-12.416z" />
<glyph unicode="&#xe936;" glyph-name="Arrow_Up_Right_MD" d="M298.666 192c-10.918 0-21.831 4.169-30.164 12.501-16.666 16.666-16.666 43.669 0 60.339l353.834 353.831h-238.337c-23.561 0-42.667 19.106-42.667 42.667s19.106 42.667 42.667 42.667h341.334c0.043 0 0.085 0 0.124 0 5.709-0.021 11.166-1.147 16.124-3.208 5.065-2.082 9.813-5.187 13.918-9.292s7.206-8.857 9.293-13.922c2.061-4.958 3.187-10.411 3.209-16.12 0-0.043 0-0.087 0-0.125v-341.334c0-23.561-19.106-42.667-42.667-42.667s-42.667 19.106-42.667 42.667v238.334l-353.837-353.837c-8.333-8.333-19.246-12.501-30.164-12.501z" />
<glyph unicode="&#xe937;" glyph-name="Arrow_Up_Right_SM" d="M341.332 234.667c-10.918 0-21.831 4.169-30.164 12.501-16.666 16.666-16.666 43.669 0 60.339l268.501 268.498h-153.004c-23.561 0-42.667 19.106-42.667 42.667s19.106 42.667 42.667 42.667h256.001c0.043 0 0.085 0 0.124 0 5.709-0.021 11.166-1.147 16.124-3.208 5.065-2.082 9.813-5.187 13.918-9.292s7.206-8.857 9.293-13.922c2.061-4.958 3.187-10.411 3.209-16.12 0-0.043 0-0.087 0-0.125v-256.001c0-23.561-19.106-42.667-42.667-42.667s-42.667 19.106-42.667 42.667v153.003l-268.503-268.506c-8.333-8.333-19.246-12.501-30.164-12.501z" />
<glyph unicode="&#xe938;" glyph-name="Arrow_Up_SM" d="M512 192c-23.561 0-42.667 19.106-42.667 42.667v323.664l-97.835-97.834c-16.666-16.666-43.663-16.666-60.333 0s-16.666 43.665 0 60.335l170.665 170.665c4.105 4.105 8.853 7.208 13.918 9.294 4.958 2.061 10.415 3.187 16.124 3.209 0.085 0 0.166 0 0.252 0 5.709-0.021 11.166-1.148 16.124-3.209 5.065-2.082 9.813-5.19 13.918-9.294l170.667-170.665c16.666-16.666 16.666-43.665 0-60.335s-43.665-16.666-60.335 0l-97.835 97.834v-323.664c0.004-23.561-19.102-42.667-42.662-42.667z" />
<glyph unicode="&#xe939;" glyph-name="Arrows_Reload_01" d="M213.334 21.333c-23.561 0-42.667 19.106-42.667 42.667v213.333c0 23.561 19.106 42.667 42.667 42.667h213.332c23.561 0 42.667-19.106 42.667-42.667s-19.106-42.667-42.667-42.667h-123.605c20.437-19.981 43.772-37.022 69.436-50.581 49.728-26.334 105.271-38.106 160.771-34.022 56.043 4.126 109.478 23.625 154.5 56.397 45.065 32.772 80.043 77.585 101.21 129.604 8.875 21.833 33.771 32.333 55.582 23.458 21.833-8.875 32.333-33.766 23.458-55.578-27.145-66.79-72.124-124.361-130.061-166.485-57.873-42.125-126.498-67.191-198.438-72.482-71.394-5.184-143.022 9.839-206.915 43.669-27.793 14.686-53.479 32.58-76.604 53.227v-97.873c0-23.561-19.106-42.667-42.667-42.667zM195.52 533.312c-5.355 0-10.789 1.021-16.041 3.167-21.833 8.875-32.333 33.767-23.459 55.578 27.166 66.833 72.144 124.418 130.060 166.5 57.873 42.103 126.52 67.168 198.481 72.458 71.437 5.376 142.98-9.836 206.874-43.667 27.772-14.686 53.457-32.583 76.561-53.229v97.88c0 23.561 19.106 42.667 42.667 42.667s42.667-19.106 42.667-42.667v-213.333c0-23.561-19.106-42.667-42.667-42.667h-213.333c-23.561 0-42.667 19.106-42.667 42.667s19.106 42.667 42.667 42.667h123.605c-20.416 19.981-43.75 37.045-69.397 50.604-49.728 26.313-105.293 38.104-160.73 34-56.085-4.147-109.521-23.624-154.543-56.396-45.043-32.73-80.043-77.542-101.21-129.604-6.72-16.559-22.682-26.626-39.535-26.626z" />
<glyph unicode="&#xe93a;" glyph-name="Bar_Bottom" d="M716.791 64h-409.583c-52.855 0-81.96 0-109.458 14.042-23.748 12.207-43.477 31.957-55.646 55.625-14.106 27.541-14.104 56.666-14.104 109.542v409.583c0 52.877 0 82.002 14.063 109.458 12.207 23.748 31.937 43.498 55.583 55.667 27.605 14.084 56.707 14.083 109.563 14.083h409.583c52.877 0 82.001 0 109.457-14.042 23.748-12.207 43.499-31.958 55.667-55.625 14.084-27.541 14.084-56.665 14.084-109.542v-409.583c0-52.877 0-82.001-14.042-109.457-12.207-23.748-31.957-43.499-55.625-55.667-27.541-14.084-56.666-14.084-109.542-14.084zM213.333 277.333v-34.125c0-37.001-0.002-61.419 4.687-70.626 4.002-7.748 10.812-14.583 18.667-18.581 9.105-4.668 33.542-4.668 70.521-4.668h409.583c37.001 0 61.419 0 70.626 4.71 7.748 3.959 14.583 10.79 18.581 18.624 4.668 9.126 4.668 33.54 4.668 70.541v34.125h-597.333zM213.333 362.667h597.333v290.125c0 37.001 0 61.418-4.71 70.625-3.959 7.748-10.79 14.586-18.624 18.583-9.126 4.668-33.54 4.667-70.541 4.667h-409.583c-36.979 0-61.418 0.002-70.625-4.708-7.748-3.959-14.563-10.792-18.604-18.625-4.646-9.126-4.646-33.541-4.646-70.542v-290.125z" />
<glyph unicode="&#xe93b;" glyph-name="Bar_Left" d="M716.791 64h-409.583c-52.877 0-82.002 0-109.458 14.042-23.748 12.207-43.498 31.957-55.667 55.625-14.084 27.541-14.083 56.666-14.083 109.542v409.583c0 52.877 0 82.002 14.042 109.458 12.207 23.748 31.958 43.498 55.625 55.667 27.541 14.084 56.665 14.083 109.542 14.083h409.583c52.877 0 82.001 0 109.457-14.042 23.748-12.207 43.499-31.958 55.667-55.625 14.084-27.541 14.084-56.665 14.084-109.542v-409.583c0-52.877 0-82.001-14.042-109.457-12.207-23.748-31.957-43.499-55.625-55.667-27.541-14.084-56.666-14.084-109.542-14.084zM426.667 149.333h290.125c37.001 0 61.419 0 70.626 4.71 7.748 3.959 14.583 10.79 18.581 18.624 4.668 9.126 4.668 33.54 4.668 70.541v409.583c0 37.001 0 61.418-4.71 70.625-3.959 7.748-10.79 14.586-18.624 18.583-9.126 4.668-33.54 4.667-70.541 4.667h-290.125v-597.333zM307.209 746.667c-37.001 0-61.418 0.002-70.625-4.708-7.748-3.959-14.586-10.792-18.583-18.625-4.668-9.126-4.667-33.541-4.667-70.542v-409.583c0-37.001-0.002-61.419 4.708-70.626 3.959-7.748 10.792-14.583 18.625-18.581 9.126-4.668 33.541-4.668 70.542-4.668h34.125v597.333h-34.125z" />
<glyph unicode="&#xe93c;" glyph-name="Bar_Right" d="M716.791 64h-409.583c-52.855 0-81.96 0-109.458 14.042-23.748 12.207-43.477 31.957-55.646 55.625-14.106 27.541-14.104 56.666-14.104 109.542v409.583c0 52.877 0 82.002 14.063 109.458 12.207 23.748 31.937 43.498 55.583 55.667 27.605 14.084 56.707 14.083 109.563 14.083h409.583c52.855 0 81.958 0 109.457-14.042 23.748-12.207 43.477-31.958 55.646-55.625 14.106-27.541 14.106-56.665 14.106-109.542v-409.583c0-52.877 0-82.001-14.063-109.457-12.207-23.748-31.936-43.499-55.582-55.667-27.605-14.084-56.708-14.084-109.564-14.084zM682.667 149.333h34.125c36.979 0 61.419 0 70.626 4.71 7.748 3.959 14.562 10.79 18.603 18.624 4.646 9.126 4.646 33.54 4.646 70.541v409.583c0 37.001 0 61.418-4.689 70.625-4.002 7.748-10.812 14.586-18.667 18.583-9.105 4.668-33.54 4.667-70.519 4.667h-34.125v-597.333zM307.209 746.667c-36.979 0-61.418 0.002-70.625-4.708-7.748-3.959-14.563-10.792-18.604-18.625-4.646-9.126-4.646-33.541-4.646-70.542v-409.583c0-37.001-0.002-61.419 4.687-70.626 4.002-7.748 10.812-14.583 18.667-18.581 9.105-4.668 33.542-4.668 70.521-4.668h290.125v597.333h-290.125z" />
<glyph unicode="&#xe93d;" glyph-name="Bar_Top" d="M716.791 64h-409.583c-52.877 0-82.002 0-109.458 14.042-23.748 12.207-43.498 31.957-55.667 55.625-14.084 27.541-14.083 56.666-14.083 109.542v409.583c0 52.877 0 82.002 14.042 109.458 12.207 23.748 31.958 43.498 55.625 55.667 27.541 14.084 56.665 14.083 109.542 14.083h409.583c52.877 0 82.001 0 109.457-14.042 23.748-12.207 43.499-31.958 55.667-55.625 14.084-27.541 14.084-56.665 14.084-109.542v-409.583c0-52.877 0-82.001-14.042-109.457-12.207-23.748-31.957-43.499-55.625-55.667-27.541-14.084-56.666-14.084-109.542-14.084zM213.333 533.333v-290.125c0-37.001-0.002-61.419 4.708-70.626 3.959-7.748 10.792-14.583 18.625-18.581 9.126-4.668 33.541-4.668 70.542-4.668h409.583c37.001 0 61.419 0 70.626 4.71 7.748 3.959 14.583 10.79 18.581 18.624 4.668 9.126 4.668 33.54 4.668 70.541v290.125h-597.333zM213.333 618.667h597.333v34.125c0 37.001 0 61.418-4.71 70.625-3.959 7.748-10.79 14.586-18.624 18.583-9.126 4.668-33.54 4.667-70.541 4.667h-409.583c-37.001 0-61.418 0.002-70.625-4.708-7.748-3.959-14.586-10.792-18.583-18.625-4.668-9.126-4.667-33.541-4.667-70.542v-34.125z" />
<glyph unicode="&#xe93e;" glyph-name="Bell_Add" d="M512 21.333c-94.127 0-170.667 76.54-170.667 170.667h-110.5c-19.209 0-30.837 0-43.834 4.041-26.5 8.875-46.076 28.459-54.656 54.042-4.335 13.918-4.344 25.545-4.344 44.753 0 9.835 0.166 15.040 0.75 19.665 2.957 15.377 7.791 26.752 14.917 37.043 5.167 6.46 7.878 9.668 14.333 16.124l12.667 12.668v152.998c0 188.207 153.126 341.333 341.333 341.333s341.333-153.126 341.333-341.333v-152.998l12.676-12.668c7.458-7.458 11.793-12.416 14.583-16.499 6.874-9.916 11.699-21.291 14.157-33.417 1.084-7.876 1.25-13.082 1.25-22.916 0-19.209 0.009-30.839-4.032-43.836-8.875-26.5-28.459-46.076-54.042-54.656-13.124-4.335-25.041-4.343-44.749-4.343h-110.511c0-94.131-76.54-170.667-170.667-170.667zM426.667 192c0-47.040 38.293-85.333 85.333-85.333s85.333 38.293 85.333 85.333h-170.667zM213.333 302.042c-0.043-1.792 0-4.041 0-7.206 0-9.335-0.334-14.959 0.417-19.375 2.125 1.54 7.748 1.873 17.083 1.873h562.331c9.165 0 15.040-0.29 19.418 0.418-1.583 2.125-1.916 7.748-1.916 17.084 0 4.54 0.094 7.168-0.115 9.417-0.666-1.165-2.551 0.747-4.885 3.081l-16.614 16.627c-13.585 13.585-21.052 31.543-21.052 50.667v158.707c0 141.167-114.833 256-256 256s-256-114.833-256-256v-158.707c0-19.123-7.456-37.082-21.041-50.667l-16.625-16.627c-2.338-2.377-3.835-3.955-5-5.291zM512 362.667c-23.582 0-42.667 19.085-42.667 42.667v85.333h-85.333c-23.582 0-42.667 19.085-42.667 42.667s19.085 42.667 42.667 42.667h85.333v85.333c0 23.582 19.085 42.667 42.667 42.667s42.667-19.085 42.667-42.667v-85.333h85.333c23.582 0 42.667-19.085 42.667-42.667s-19.085-42.667-42.667-42.667h-85.333v-85.333c0-23.582-19.085-42.667-42.667-42.667z" />
<glyph unicode="&#xe93f;" glyph-name="Bell_Close" d="M512 21.333c-94.127 0-170.667 76.54-170.667 170.667h-110.5c-19.209 0-30.837 0-43.834 4.041-26.5 8.875-46.086 28.459-54.667 54.042-4.335 13.918-4.333 25.545-4.333 44.753 0 9.835 0.166 15.040 0.75 19.665 2.957 15.377 7.791 26.752 14.917 37.043 5.167 6.46 7.878 9.668 14.333 16.124l12.667 12.668v152.998c0 188.207 153.126 341.333 341.333 341.333s341.333-153.126 341.333-341.333v-152.998l12.668-12.668c7.458-7.458 11.793-12.416 14.583-16.499 6.874-9.916 11.708-21.291 14.165-33.417 1.084-7.876 1.25-13.082 1.25-22.916 0-19.209 0-30.839-4.041-43.836-8.875-26.5-28.459-46.076-54.042-54.656-13.918-4.335-25.545-4.343-44.753-4.343h-110.498c0-94.131-76.54-170.667-170.667-170.667zM426.667 192c0-47.040 38.293-85.333 85.333-85.333s85.333 38.293 85.333 85.333h-170.667zM213.333 302.042c-0.043-1.792 0-4.041 0-7.206 0-9.335-0.334-14.959 0.417-19.375 2.125 1.54 7.748 1.873 17.083 1.873h562.331c9.374-0.043 14.959-0.375 19.375 0.418-1.54 2.125-1.873 7.748-1.873 17.084 0 4.54 0.085 7.168-0.124 9.417-0.666-1.165-2.581 0.747-4.877 3.081l-16.623 16.627c-13.585 13.585-21.043 31.543-21.043 50.667v158.707c0 141.167-114.833 256-256 256s-256-114.833-256-256v-158.707c0-19.123-7.456-37.082-21.041-50.667l-16.625-16.627c-2.338-2.377-3.835-3.955-5-5.291zM597.333 405.333c-10.918 0-21.833 4.169-30.165 12.501l-55.168 55.164-55.168-55.164c-16.666-16.666-43.662-16.666-60.332 0s-16.666 43.661 0 60.331l55.165 55.168-55.165 55.177c-16.666 16.666-16.666 43.664 0 60.334s43.662 16.666 60.332 0l55.168-55.167 55.168 55.167c16.666 16.666 43.661 16.666 60.331 0s16.666-43.664 0-60.334l-55.164-55.177 55.164-55.168c16.666-16.666 16.666-43.661 0-60.331-8.337-8.333-19.247-12.501-30.165-12.501z" />
<glyph unicode="&#xe940;" glyph-name="Bell_Notification" d="M512 21.333c-94.127 0-170.667 76.54-170.667 170.667h-128c-47.040 0-85.333 38.293-85.333 85.333v25.165c0 22.46 9.082 44.335 24.958 60.126l17.708 17.711v152.998c0 188.207 153.126 341.333 341.333 341.333 24.875 0 50.001-2.789 74.999-8.25 38.293 32.623 87.415 50.917 138.334 50.917 117.623 0 213.333-95.71 213.333-213.333 0-67.541-32.124-130.833-85.333-170.833v-152.832l17.792-17.792c15.791-15.71 24.875-37.589 24.875-60.045v-25.165c0-47.040-38.293-85.333-85.333-85.333h-128c0-94.127-76.54-170.667-170.667-170.667zM426.667 192c0-47.040 38.293-85.333 85.333-85.333s85.333 38.293 85.333 85.333h-170.667zM640 277.333h170.667v25.165l-21.623 21.461c-13.585 13.585-21.043 31.543-21.043 50.667v120.29c-13.956-2.79-28.25-4.25-42.667-4.25-117.623 0-213.333 95.71-213.333 213.333 0 29.457 6.042 58.208 17.54 84.708-147.374 10.415-273.54-108.371-273.54-255.375v-158.707c0-19.123-7.456-37.082-21.041-50.667l-21.75-21.751 0.125-24.875h426.667zM627.042 785.958c-19.209-23.040-29.709-51.917-29.709-81.958 0-70.583 57.417-128 128-128 22.165 0 43.831 5.584 62.75 16.208 0.418 0.252 0.832 0.498 1.293 0.75 39.458 22.874 63.957 65.333 63.957 111.042 0 70.583-57.417 128-128 128-33.626 0-65.916-13.29-89.668-36.667-2.372-3.541-5.291-6.708-8.623-9.375z" />
<glyph unicode="&#xe941;" glyph-name="Bell_Off" d="M512 21.333c-94.127 0-170.667 76.54-170.667 170.667h-128c-43.085 0-80.288 33.289-84.708 75.789l-0.5 6.084-0.125 28.625c0 22.46 9.082 44.335 24.958 60.126l17.708 17.707v153.003c0 76.415 25.209 149.708 71.583 209.416l-59.083 59.084c-16.666 16.666-16.666 43.663 0 60.333s43.663 16.666 60.333 0l682.665-682.667c16.666-16.666 16.666-43.665 0-60.335-16.666-16.666-43.661-16.666-60.331 0l-72.836 72.836h-110.332c0-94.127-76.54-170.667-170.667-170.667zM426.667 192c0-47.040 38.293-85.333 85.333-85.333s85.333 38.293 85.333 85.333h-170.667zM303.209 681.791c-30.626-43.123-47.209-94.749-47.209-148.457v-158.707c0-19.123-7.456-37.082-21.041-50.667l-21.75-21.751 0.417-26.543 169.542 1.668c0.252 0 0.543 0 0.833 0h323.665l-404.457 404.457zM810.667 362.667c-23.582 0-42.667 19.085-42.667 42.667v128c0 141.166-114.833 255.999-256 255.999h-10.249c-27.998-1.084-56.085-6.836-82.001-17.041-21.709-8.623-46.668 2.044-55.333 24-8.666 21.875 2.082 46.668 24 55.333 34.876 13.79 72.46 21.541 111.752 23l11.831 0.042c188.207 0 341.333-153.126 341.333-341.332v-128c0-23.582-19.085-42.667-42.667-42.667z" />
<glyph unicode="&#xe942;" glyph-name="Bell_Remove" d="M512 21.333c-94.127 0-170.667 76.54-170.667 170.667h-110.5c-19.209 0-30.837 0-43.834 4.041-26.5 8.875-46.076 28.459-54.656 54.042-4.335 13.918-4.344 25.545-4.344 44.753 0 9.835 0.166 15.040 0.75 19.665 2.957 15.377 7.791 26.752 14.917 37.043 5.167 6.46 7.878 9.668 14.333 16.124l12.667 12.668v152.998c0 188.207 153.126 341.333 341.333 341.333s341.333-153.126 341.333-341.333v-152.998l12.676-12.668c7.458-7.458 11.793-12.416 14.583-16.499 6.874-9.916 11.699-21.291 14.157-33.417 1.084-7.876 1.25-13.082 1.25-22.916 0-19.209 0.009-30.839-4.032-43.836-8.875-26.5-28.459-46.076-54.042-54.656-13.124-4.335-25.041-4.343-44.749-4.343h-110.511c0-94.131-76.54-170.667-170.667-170.667zM426.667 192c0-47.040 38.293-85.333 85.333-85.333s85.333 38.293 85.333 85.333h-170.667zM213.333 302.042c-0.043-1.792 0-4.041 0-7.206 0-9.335-0.334-14.959 0.417-19.375 2.125 1.54 7.748 1.873 17.083 1.873h562.331c9.165 0 15.040-0.29 19.418 0.418-1.583 2.125-1.916 7.748-1.916 17.084 0 4.54 0.094 7.168-0.115 9.417-0.666-1.165-2.59 0.747-4.885 3.081l-16.614 16.627c-13.585 13.585-21.052 31.543-21.052 50.667v158.707c0 141.167-114.833 256-256 256s-256-114.833-256-256v-158.707c0-19.123-7.456-37.082-21.041-50.667l-16.625-16.627c-2.338-2.377-3.835-3.955-5-5.291zM640 490.667h-256c-23.582 0-42.667 19.085-42.667 42.667s19.085 42.667 42.667 42.667h256c23.582 0 42.667-19.085 42.667-42.667s-19.085-42.667-42.667-42.667z" />
<glyph unicode="&#xe943;" glyph-name="Bell_Ring" d="M512.004 21.338c-94.127 0-170.667 76.54-170.667 170.667h-110.5c-19.209 0-30.837 0-43.833 4.041-26.5 8.875-46.076 28.459-54.656 54.042-4.335 13.918-4.343 25.54-4.343 44.749 0 9.835 0.166 15.044 0.75 19.669 2.957 15.377 7.791 26.748 14.917 37.039 5.167 6.46 7.878 9.673 14.333 16.128l12.667 12.663v153.002c0 188.207 153.126 341.333 341.333 341.333s341.333-153.126 341.333-341.333v-153.002l12.676-12.663c7.458-7.458 11.793-12.416 14.583-16.499 6.874-9.916 11.699-21.291 14.157-33.417 1.084-7.876 1.25-13.086 1.25-22.921 0-19.209 0.009-30.835-4.032-43.831-8.875-26.5-28.459-46.076-54.042-54.656-13.124-4.335-25.041-4.343-44.749-4.343h-110.511c0-94.131-76.54-170.667-170.667-170.667zM426.671 192.004c0-47.040 38.293-85.333 85.333-85.333s85.333 38.293 85.333 85.333h-170.667zM213.338 302.046c-0.043-1.792 0-4.045 0-7.211 0-9.335-0.335-14.959 0.416-19.375 2.125 1.54 7.748 1.877 17.083 1.877h562.332c9.165 0 15.040-0.29 19.418 0.418-1.583 2.125-1.916 7.744-1.916 17.079 0 4.54 0.094 7.168-0.115 9.417-0.666-1.084-2.59 0.794-4.885 3.085l-16.614 16.627c-13.585 13.585-21.052 31.543-21.052 50.667v158.707c0 141.167-114.833 256-256 256s-256-114.833-256-256v-158.707c0-19.123-7.457-37.082-21.042-50.667l-16.625-16.627c-2.338-2.377-3.835-3.955-5-5.291zM903.296 660.504c-16.499 0-32.209 9.584-39.168 25.708-26.5 61.082-68.331 114.333-120.956 153.958-18.833 14.165-22.583 40.917-8.418 59.75 14.127 18.791 40.96 22.625 59.75 8.417 64.418-48.499 115.541-113.584 147.874-188.208 9.374-21.585-0.542-46.705-22.165-56.084-5.495-2.419-11.294-3.541-16.917-3.541zM120.713 660.504c-5.666 0-11.417 1.126-16.916 3.541-21.623 9.374-31.545 34.499-22.167 56.084 32.333 74.624 83.461 139.709 147.875 188.208 18.833 14.208 45.666 10.335 59.75-8.417 14.165-18.833 10.416-45.585-8.417-59.75-52.625-39.625-94.458-92.876-120.958-153.958-6.955-16.124-22.668-25.708-39.167-25.708z" />
<glyph unicode="&#xe944;" glyph-name="Bell" d="M512 21.333c-94.127 0-170.667 76.54-170.667 170.667h-110.5c-19.209 0-30.837 0-43.834 4.041-26.5 8.875-46.076 28.459-54.656 54.042-4.335 13.918-4.344 25.545-4.344 44.753 0 9.835 0.166 15.040 0.75 19.665 2.957 15.377 7.791 26.752 14.917 37.043 5.167 6.46 7.878 9.668 14.333 16.124l12.667 12.668v152.998c0 188.207 153.126 341.333 341.333 341.333s341.333-153.126 341.333-341.333v-152.998l12.676-12.668c7.458-7.458 11.793-12.416 14.583-16.499 6.874-9.916 11.699-21.291 14.157-33.417 1.084-7.876 1.25-13.082 1.25-22.916 0-19.209 0.009-30.839-4.032-43.836-8.875-26.5-28.459-46.076-54.042-54.656-13.124-4.335-25.041-4.343-44.749-4.343h-110.511c0-94.131-76.54-170.667-170.667-170.667zM426.667 192c0-47.040 38.293-85.333 85.333-85.333s85.333 38.293 85.333 85.333h-170.667zM213.333 302.042c-0.043-1.792 0-4.041 0-7.206 0-9.335-0.334-14.959 0.417-19.375 2.125 1.54 7.748 1.873 17.083 1.873h562.331c9.165 0 15.040-0.29 19.418 0.418-1.583 2.125-1.916 7.748-1.916 17.084 0 4.54 0.094 7.168-0.115 9.417-0.666-1.084-2.551 0.789-4.885 3.081l-16.614 16.627c-13.585 13.585-21.052 31.543-21.052 50.667v158.707c0 141.167-114.833 256-256 256s-256-114.833-256-256v-158.707c0-19.123-7.456-37.082-21.041-50.667l-16.625-16.627c-2.338-2.377-3.835-3.955-5-5.291z" />
<glyph unicode="&#xe945;" glyph-name="Bold" d="M576 106.667h-234.667c-23.582 0-42.667 19.106-42.667 42.667v597.333c0 23.561 19.085 42.667 42.667 42.667h192c105.873 0 192-86.127 192-192 0-51.332-20.25-98.044-53.21-132.523 57.293-33.271 95.876-95.292 95.876-166.144 0-105.873-86.127-192-192-192zM384 192h192c58.833 0 106.667 47.855 106.667 106.667s-47.834 106.667-106.667 106.667h-192v-213.333zM384 490.667h149.333c58.833 0 106.667 47.855 106.667 106.667s-47.834 106.667-106.667 106.667h-149.333v-213.333z" />
<glyph unicode="&#xe946;" glyph-name="Book_Open" d="M512.043 64c-3.085 0.021-8.457 0.623-12.604 1.873-2.581 0.794-5.069 1.835-7.398 3.063-3.75 2.001-7.249 4.561-10.334 7.667-2.21 2.21-4.122 4.625-5.747 7.189l-24.209 36.339c-19.831 29.73-29.775 44.642-39.417 52.578-8.354 6.959-18.58 12.416-29.021 15.543-12.437 3.75-30.46 3.75-66.313 3.75h-120.729c-27.917 0-46.33 0.004-64.604 9.545-15.625 7.437-29.457 21.286-37.521 38.327-8.811 16.687-8.812 35.123-8.812 63.061v375.458c0 27.938 0 46.376 9.604 64.667 7.27 15.437 21.104 29.287 38.167 37.432 16.832 8.832 35.25 8.833 63.167 8.833h110.938c75.981 0 117.852-0.001 154.377-18.813 19.021-9.353 36.203-22.647 50.394-38.792 14.229 16.102 31.646 29.563 51.145 39.146 35.831 18.458 77.666 18.458 153.668 18.458h110.959c27.874 0 46.34-0.001 64.593-9.542 14.75-7.002 27.908-19.955 36.74-36.766 9.583-18.249 9.583-36.691 9.583-64.625v-375.458c0-27.938 0-46.374-9.626-64.666-8.794-16.772-21.952-29.726-38.123-37.431-16.832-8.832-35.29-8.836-63.168-8.836h-120.751c-35.874 0-53.875 0-66.167-3.708-10.291-3.085-20.459-8.542-29.5-15.834-8.794-7.249-18.752-22.229-36.834-49.395-0.043-0.064-2.33-3.499-2.372-3.563l-24.209-35.895c-1.668-2.564-3.584-4.979-5.79-7.189-3.042-3.021-6.46-5.5-10.125-7.437-2.505-1.331-5.124-2.415-7.876-3.23-3.955-1.19-8.043-1.754-12.083-1.754zM554.667 541.875v-305.626c0.917 0.794 1.835 1.562 2.752 2.334 18.167 14.686 37.871 25.165 58.871 31.437 24.252 7.313 47.834 7.313 90.709 7.313h120.751c11.793 0 23.966 0 27.469 0.811-1.873 0.853-1.877 13.022-1.877 24.794v375.458c0 11.772 0.004 23.935-0.789 27.417-0.832-1.813-13.009-1.812-24.802-1.812h-110.959c-62.669 0-97.156-0.002-115.281-9.354-16.457-8.085-29.376-21.022-37.124-36.771-9.715-18.854-9.719-53.353-9.719-116zM196.271 277.333h120.729c42.854 0 66.457 0 90.854-7.356 21.437-6.417 41.874-17.331 58.936-31.561 0.853-0.708 1.707-1.438 2.543-2.146v305.604c0 62.647 0 97.146-9.335 115.25-8.124 16.499-21.043 29.435-36.769 37.167-18.876 9.707-53.377 9.708-116.020 9.708h-110.938c-11.793 0-23.977-0.002-27.459-0.812 1.856-0.853 1.854-13.020 1.854-24.792v-375.458c0-11.772 0.002-23.936 0.812-27.418 0.815 1.813 12.999 1.813 24.792 1.813z" />
<glyph unicode="&#xe947;" glyph-name="Book" d="M699.729 21.333h-454.396c-41.165 0-74.667 33.502-74.667 74.667 0 7.002 0.522 13.897 1.542 20.625-0.998 3.627-1.542 7.437-1.542 11.375v567.458c0 52.855 0 81.96 14.042 109.458 12.228 23.748 31.958 43.477 55.604 55.646 27.605 14.106 56.707 14.104 109.563 14.104h392.521c27.917 0 46.332-0.001 64.606-9.542 14.729-7.002 27.938-19.96 36.749-36.771 9.583-18.249 9.583-36.686 9.583-64.62v-503.459c0-27.938 0-46.374-9.604-64.666-7.855-14.98-19.209-26.897-33.062-34.769v-28.561c0-27.938 0-46.374-9.604-64.666-8.794-16.772-21.999-29.73-38.165-37.436-16.836-8.845-35.251-8.845-63.168-8.845zM257.062 106.667h442.667c11.793 0 23.979 0 27.46 0.811-1.856 0.853-1.856 13.022-1.856 24.794v17.062h-416c-25.749 0-47.313-18.355-52.271-42.667zM349.875 789.333c-36.979 0-61.418 0.002-70.625-4.708-7.748-3.981-14.563-10.791-18.604-18.646-4.646-9.105-4.646-33.542-4.646-70.521v-471.458c16.418 6.874 34.436 10.667 53.333 10.667h433.062c11.793 0 23.979 0 27.46 0.811-1.856 0.853-1.856 13.022-1.856 24.794v503.458c0 11.772 0 23.935-0.811 27.417-0.811-1.813-13.001-1.812-24.794-1.812h-392.521z" />
<glyph unicode="&#xe948;" glyph-name="Bookmark" d="M682.645 52.625c-5.478 0-10.999 0.333-16.542 1.062-29.854 4.523-56.896 22.063-110.498 58.125-14.814 9.856-24.252 16.043-29.043 17.707-9.562 3.251-19.729 3.29-29.082 0-4.834-1.668-14.276-7.855-29.252-17.835-53.435-35.938-80.475-53.478-109.416-57.873-55.561-7.249-108.501 21.355-132.625 70.852-12.855 26.334-12.854 58.714-12.854 123.234v404.889c0 52.855 0 81.96 14.042 109.458 12.228 23.748 31.958 43.477 55.604 55.646 27.605 14.106 56.707 14.104 109.563 14.104h238.916c52.855 0 81.958 0 109.457-14.042 23.748-12.228 43.477-31.959 55.646-55.604 14.106-27.605 14.106-56.707 14.106-109.562v-404.889c0-64.521 0-96.9-12.877-123.255-21.645-44.476-66.603-72.017-115.145-72.017zM511.834 217.229c14.353 0 28.749-2.33 42.522-7.019 15.625-5.457 28.791-14.212 48.708-27.482 31.377-21.124 63.642-42.833 74.914-44.54 17.502-2.377 35.068 7.313 43.127 23.855 4.228 8.666 4.228 44.437 4.228 85.854v404.894c0 36.979 0 61.418-4.71 70.625-3.981 7.748-10.79 14.563-18.645 18.604-9.105 4.646-33.54 4.646-70.519 4.646h-238.916c-36.979 0-61.418 0.002-70.625-4.708-7.748-3.981-14.563-10.791-18.604-18.646-4.646-9.105-4.646-33.542-4.646-70.521v-404.894c0-41.417 0.001-77.193 4.208-85.837 8.102-16.585 25.814-26.018 44.063-23.744 10.355 1.583 42.623 23.292 73.833 44.292 20.082 13.397 33.254 22.144 48.626 27.499 13.606 4.745 27.998 7.121 42.436 7.121z" />
<glyph unicode="&#xe949;" glyph-name="Building_01" d="M938.667 64h-853.333c-23.582 0-42.667 19.106-42.667 42.667s19.085 42.667 42.667 42.667h42.667v503.458c0 52.855 0 81.96 14.042 109.458 12.207 23.748 31.958 43.477 55.625 55.646 27.541 14.106 56.665 14.104 109.542 14.104h68.25c52.877 0 82.001 0 109.457-14.063 23.748-12.207 43.499-31.937 55.667-55.583 14.084-27.605 14.084-56.707 14.084-109.563v-38.646c8.666 5.457 17.207 9.519 26.624 12.438 24.751 7.147 50.044 7.124 73.958 0.208 27.541-8.499 47.253-26.105 82.961-58.063l98.415-88.605c18.044-16.145 28.992-25.937 38.157-40.311 6.665-9.105 12.834-22.208 16.998-36.915 4.207-17.229 4.211-31.002 4.211-56.021v-197.542h42.667c23.582 0 42.667-19.106 42.667-42.667s-19.076-42.667-42.658-42.667zM426.667 149.333h384v197.542c0 19.831-0.043 28.855-1.374 34.334-1.417 4.791-3.588 8.623-5.086 10.688-4.083 6.31-10.453 12.079-24.58 24.725l-98.21 88.422c-25.126 22.46-41.626 37.233-50.624 40.002-7.667 2.227-16.585 2.228-25.041-0.209-8.209-2.564-24.713-17.333-49.754-39.712l-98.206-88.418c-14.916-13.376-21.086-18.957-24.461-23.915-2.121-3.145-4.203-7.957-5.705-13.188-0.917-3.874-0.96-12.894-0.96-32.73v-197.542zM213.333 149.333h128v197.542c0 25.020-0.001 38.793 3.792 54.417 4.292 15.334 10.209 28.356 17.458 39.228 9.626 14.106 20.373 23.731 38.208 39.689l68.542 61.708v110.875c0 36.979 0 61.418-4.71 70.625-3.959 7.748-10.79 14.563-18.624 18.604-9.126 4.646-33.54 4.646-70.541 4.646h-68.25c-37.001 0-61.418 0.002-70.625-4.687-7.748-4.002-14.586-10.812-18.583-18.667-4.668-9.105-4.667-33.542-4.667-70.521v-503.458z" />
<glyph unicode="&#xe94a;" glyph-name="Building_02" d="M938.667 64h-853.333c-23.582 0-42.667 19.106-42.667 42.667s19.085 42.667 42.667 42.667h42.667v503.458c0 52.877-0.002 82.001 14.125 109.521 12.083 23.603 31.791 43.334 55.5 55.563 27.584 14.127 56.707 14.125 109.583 14.125h68.25c52.877 0 82.001 0 109.457-14.063 23.834-12.292 43.541-32.021 55.667-55.667 14.084-27.477 14.084-56.607 14.084-109.479v-38.646c8.708 5.457 17.25 9.519 26.624 12.438 24.751 7.147 50.044 7.124 73.958 0.208 27.499-8.478 47.168-26.045 82.833-57.896l98.543-88.772c18.044-16.145 29.001-25.937 38.165-40.311 6.665-9.105 12.838-22.208 17.003-36.915 4.207-17.229 4.207-31.002 4.207-56.021v-197.542h42.667c23.582 0 42.667-19.106 42.667-42.667s-19.085-42.667-42.667-42.667zM554.667 149.333h256v197.542c0 19.831-0.043 28.855-1.374 34.334-1.417 4.791-3.588 8.623-5.086 10.688-4.083 6.31-10.453 12.079-24.58 24.725l-98.167 88.422c-25.207 22.498-41.668 37.233-50.667 40.002-7.667 2.227-16.585 2.228-25.041-0.209-8.209-2.564-24.666-17.295-49.626-39.584l-1.459-1.331v-354.59zM213.333 149.333h256v373.21c0 0.064 0 0.141 0 0.226v130.028c0 36.958 0 61.376-4.71 70.563-4.002 7.834-10.79 14.625-18.667 18.687-9.084 4.625-33.502 4.625-70.498 4.625h-68.25c-37.001 0-61.418 0.002-70.625-4.687-7.748-4.002-14.54-10.793-18.5-18.583-4.749-9.229-4.75-33.646-4.75-70.604v-503.464z" />
<glyph unicode="&#xe94b;" glyph-name="Building_03" d="M938.667 64h-853.333c-23.582 0-42.667 19.106-42.667 42.667s19.085 42.667 42.667 42.667h42.667v197.542c0 25.020-0.001 38.793 3.792 54.417 4.292 15.334 10.209 28.356 17.458 39.228 9.626 14.106 20.373 23.731 38.208 39.689l68.542 61.708v110.875c0 52.855 0 81.96 14.042 109.458 12.207 23.748 31.958 43.477 55.625 55.646 27.541 14.106 56.665 14.104 109.542 14.104h281.583c52.877 0 82.001 0 109.457-14.063 23.748-12.207 43.499-31.937 55.667-55.583 14.084-27.605 14.084-56.707 14.084-109.563v-503.458h42.667c23.582 0 42.667-19.106 42.667-42.667s-19.085-42.667-42.667-42.667zM682.667 149.333h128v503.458c0 36.979 0 61.418-4.71 70.625-3.959 7.748-10.79 14.563-18.624 18.604-9.126 4.646-33.54 4.646-70.541 4.646h-281.583c-37.001 0-61.418 0.002-70.625-4.687-7.748-4.002-14.586-10.812-18.583-18.667-4.668-9.105-4.667-33.542-4.667-70.521v-38.646c8.666 5.457 17.208 9.519 26.625 12.438 24.751 7.125 50.044 7.124 73.958 0.208 27.541-8.499 47.253-26.105 82.961-58.063l98.415-88.605c18.044-16.145 28.992-25.937 38.157-40.311 6.665-9.105 12.834-22.208 16.998-36.915 4.207-17.229 4.211-31.002 4.211-56.021v-197.542h0.009zM213.333 149.333h384v197.542c0 19.831-0.043 28.855-1.374 34.334-1.417 4.791-3.588 8.623-5.086 10.688-4.083 6.31-10.453 12.079-24.58 24.725l-98.21 88.422c-25.126 22.46-41.626 37.233-50.625 40.002-7.71 2.227-16.585 2.228-25.041-0.209-8.209-2.564-24.709-17.333-49.75-39.712l-98.208-88.418c-14.916-13.376-21.083-18.957-24.458-23.915-2.125-3.145-4.207-7.957-5.708-13.188-0.917-3.874-0.958-12.894-0.958-32.73v-197.542z" />
<glyph unicode="&#xe94c;" glyph-name="Building_04" d="M938.667 64h-853.333c-23.582 0-42.667 19.106-42.667 42.667s19.085 42.667 42.667 42.667h42.667v546.125c0 52.855 0 81.96 14.042 109.458 12.207 23.748 31.958 43.477 55.625 55.646 27.541 14.106 56.665 14.104 109.542 14.104h153.583c52.877 0 82.001 0 109.457-14.063 23.748-12.207 43.499-31.937 55.667-55.583 14.084-27.605 14.084-56.707 14.084-109.563v-84.062c22.042 7.27 45.623 7.271 85.333 7.271 43.917 0 68.083-0.002 91.541-9.521 31.667-13.564 56.004-37.875 69.252-68.813 9.877-24.271 9.873-48.438 9.873-92.333v-298.667h42.667c23.582 0 42.667-19.106 42.667-42.667s-19.085-42.667-42.667-42.667zM640 149.333h170.667v298.667c0 30.938 0 51.396-3.29 59.46-4.335 10.103-12.501 18.291-23.334 22.916-7.292 2.957-27.75 2.957-58.709 2.957s-51.418 0.002-59.46-3.273c-10.082-4.314-18.249-12.501-22.916-23.356-2.918-7.249-2.957-27.354-2.957-57.813v-299.558zM213.333 149.333h341.333v298.667c0 0.29 0 0.606 0 0.896v246.562c0 36.979 0 61.418-4.71 70.625-3.959 7.748-10.79 14.563-18.624 18.604-9.126 4.646-33.54 4.646-70.541 4.646h-153.583c-37.001 0-61.418 0.002-70.625-4.687-7.748-4.002-14.586-10.812-18.583-18.667-4.668-9.105-4.667-33.542-4.667-70.521v-546.125zM469.333 490.667h-170.667c-23.582 0-42.667 19.106-42.667 42.667s19.085 42.667 42.667 42.667h170.667c23.582 0 42.667-19.106 42.667-42.667s-19.085-42.667-42.667-42.667zM469.333 618.667h-170.667c-23.582 0-42.667 19.106-42.667 42.667s19.085 42.667 42.667 42.667h170.667c23.582 0 42.667-19.106 42.667-42.667s-19.085-42.667-42.667-42.667z" />
<glyph unicode="&#xe94d;" glyph-name="Bulb" d="M640 21.333h-256c-23.582 0-42.667 19.085-42.667 42.667s19.085 42.667 42.667 42.667h256c23.582 0 42.667-19.085 42.667-42.667s-19.085-42.667-42.667-42.667zM597.333 149.333h-170.667c-47.040 0-85.333 38.293-85.333 85.333 0 14.293 0.084 21.457-0.292 25.916l-1 18.044c-0.333 6.165-0.332 10.001-0.917 13.124-0.794 1.502-2.835 4.582-5.792 9.626l-8.958 15.373c-2.334 4.041-18.080 28.71-62.125 95.334-32.043 49.041-48.916 105.626-48.916 163.917 0 164.668 133.999 298.667 298.667 298.667s298.667-133.999 298.667-298.667c0-58.291-16.875-114.876-48.794-163.708l-20.54-31.377c-25.084-38.293-38.626-58.918-41.583-63.957l-9.084-15.573c-2.957-5.043-5.001-8.124-6.208-10.957-0.166-1.792-0.166-5.623-0.499-11.793l-0.96-17.25c-0.418-5.248-0.333-12.425-0.333-26.718 0-47.044-38.293-85.333-85.333-85.333zM512 789.333c-117.623 0-213.333-95.71-213.333-213.333 0-41.668 12.040-82.125 34.875-117.043 27.042-40.875 60.415-91.703 65.292-100.497l8-13.709c14.835-25.207 16.919-32.128 18.417-61.794l0.916-16.166c0.418-4.915 0.5-13.999 0.5-32.124h170.667c0 18.125 0.085 27.209 0.542 32.917l0.875 15.373c1.502 29.666 3.584 36.587 18.415 61.794l8.375 14.332c2.415 4.459 10.543 16.875 44.416 68.582l20.501 31.334c22.835 34.876 34.876 75.332 34.876 117.001 0 117.623-95.71 213.333-213.333 213.333z" />
<glyph unicode="&#xe94e;" glyph-name="Calendar_Add" d="M716.791 64h-409.583c-52.791 0-81.916 0-109.333 13.897-24.29 12.668-43.997 32.521-55.875 56.145-13.999 27.123-14 56.269-14 109.167v409.583c0 52.894 0.001 82.044 14.167 109.5 11.665 23.249 31.377 43.123 55.292 55.582 26.291 13.355 53.708 14.084 101.208 14.127v42.667c0 23.561 19.085 42.667 42.667 42.667s42.667-19.106 42.667-42.667v-42.667h256v42.667c0 23.561 19.085 42.667 42.667 42.667s42.667-19.106 42.667-42.667v-42.667c47.501-0.043 74.876-0.772 100.791-13.897 24.333-12.689 44.045-32.563 55.919-56.187 13.961-27.021 13.956-56.124 13.956-108.979v-409.916c0-52.77 0-81.856-14.165-109.312-11.708-23.292-31.415-43.145-55.292-55.582-27.836-14.127-56.96-14.127-109.751-14.127zM213.333 576v-332.791c0-36.937-0.001-61.333 4.667-70.417 4.125-8.124 10.751-14.75 18.875-18.999 8.832-4.459 33.295-4.459 70.333-4.459h409.583c37.043 0 61.5 0 70.75 4.689 7.71 4.019 14.332 10.645 18.291 18.436 4.834 9.417 4.834 33.728 4.834 70.562v332.979h-597.333zM213.333 661.333h597.333c-0.043 32.166-0.375 53.521-4.668 61.833-4.126 8.188-10.752 14.792-18.876 19.042-8.832 4.459-33.289 4.459-70.332 4.459h-409.583c-37.043 0-61.5 0-70.75-4.689-7.71-4.019-14.333-10.625-18.25-18.399-4.501-8.704-4.832-30.080-4.875-62.246zM512 213.333c-23.582 0-42.667 19.106-42.667 42.667v64h-64c-23.582 0-42.667 19.106-42.667 42.667s19.085 42.667 42.667 42.667h64v64c0 23.561 19.085 42.667 42.667 42.667s42.667-19.106 42.667-42.667v-64h64c23.582 0 42.667-19.106 42.667-42.667s-19.085-42.667-42.667-42.667h-64v-64c0-23.561-19.085-42.667-42.667-42.667z" />
<glyph unicode="&#xe94f;" glyph-name="Calendar_Check" d="M716.791 64h-409.583c-52.791 0-81.916 0-109.333 13.897-24.209 12.582-43.919 32.418-55.917 56.085-13.961 27.226-13.958 56.35-13.958 109.227v409.583c0 52.877-0.001 82.001 14.083 109.436 11.831 23.415 31.545 43.273 55.417 55.667 26.249 13.333 53.666 14.063 101.167 14.106v42.667c0 23.561 19.085 42.667 42.667 42.667s42.667-19.106 42.667-42.667v-42.667h256v42.667c0 23.561 19.085 42.667 42.667 42.667s42.667-19.106 42.667-42.667v-42.667c47.501-0.043 74.876-0.772 100.791-13.897 24.252-12.604 43.964-32.457 55.919-56.124 13.961-27.127 13.956-56.23 13.956-109.043v-409.916c0-52.749 0-81.813-14.084-109.248-11.874-23.458-31.582-43.29-55.415-55.667-27.793-14.106-56.917-14.106-109.709-14.106zM213.333 576v-332.791c0-36.958-0.001-61.376 4.667-70.481 4.083-8.064 10.752-14.707 18.833-18.918 8.875-4.48 33.332-4.48 70.375-4.48h409.583c37.043 0 61.5 0 70.75 4.689 7.71 4.002 14.374 10.645 18.334 18.5 4.791 9.314 4.791 33.647 4.791 70.502v332.979h-597.333zM213.333 661.333h597.333c-0.043 32.188-0.375 53.564-4.668 61.897-4.083 8.102-10.709 14.729-18.833 18.957-8.875 4.48-33.331 4.48-70.374 4.48h-409.583c-37.043 0-61.5 0-70.75-4.689-7.748-4.019-14.374-10.646-18.333-18.458-4.416-8.602-4.749-29.999-4.791-62.187zM469.333 234.667c-10.918 0-21.833 4.169-30.165 12.501l-85.335 85.333c-16.666 16.666-16.666 43.665 0 60.335s43.663 16.666 60.333 0l55.167-55.168 140.51 140.501c16.666 16.666 43.665 16.666 60.335 0s16.666-43.665 0-60.335l-170.667-170.667c-8.341-8.333-19.26-12.501-30.178-12.501z" />
<glyph unicode="&#xe950;" glyph-name="Calendar_Close" d="M716.791 64h-409.583c-52.791 0-81.916 0-109.333 13.897-24.29 12.668-43.997 32.521-55.875 56.145-13.999 27.123-14 56.269-14 109.167v409.583c0 52.894 0.001 82.044 14.167 109.5 11.665 23.249 31.377 43.123 55.292 55.582 26.291 13.355 53.708 14.084 101.208 14.127v42.667c0 23.561 19.085 42.667 42.667 42.667s42.667-19.106 42.667-42.667v-42.667h256v42.667c0 23.561 19.085 42.667 42.667 42.667s42.667-19.106 42.667-42.667v-42.667c47.501-0.043 74.876-0.773 100.791-13.897 24.333-12.689 44.045-32.563 55.919-56.188 13.961-27.021 13.956-56.124 13.956-108.979v-409.915c0-52.77 0-81.856-14.165-109.312-11.708-23.292-31.415-43.145-55.292-55.582-27.836-14.127-56.96-14.127-109.751-14.127zM213.333 576v-332.791c0-36.937-0.001-61.333 4.667-70.417 4.125-8.124 10.751-14.75 18.875-18.999 8.832-4.459 33.295-4.459 70.333-4.459h409.583c37.043 0 61.5 0 70.75 4.689 7.71 4.019 14.332 10.645 18.291 18.436 4.834 9.417 4.834 33.728 4.834 70.562v332.979h-597.333zM213.333 661.333h597.333c-0.043 32.166-0.375 53.521-4.668 61.832-4.126 8.188-10.752 14.793-18.876 19.043-8.832 4.459-33.289 4.458-70.332 4.458h-409.583c-37.043 0-61.5 0-70.75-4.689-7.71-4.019-14.333-10.625-18.25-18.399-4.501-8.704-4.832-30.080-4.875-62.246zM597.333 234.667c-10.918 0-21.833 4.169-30.165 12.501l-55.168 55.168-55.168-55.168c-16.666-16.666-43.662-16.666-60.332 0s-16.666 43.665 0 60.335l55.165 55.168-55.165 55.168c-16.666 16.666-16.666 43.665 0 60.335s43.662 16.666 60.332 0l55.168-55.168 55.168 55.168c16.666 16.666 43.661 16.666 60.331 0s16.666-43.665 0-60.335l-55.164-55.168 55.164-55.168c16.666-16.666 16.666-43.665 0-60.335-8.337-8.333-19.247-12.501-30.165-12.501z" />
<glyph unicode="&#xe951;" glyph-name="Calendar_Days" d="M716.791 64h-409.583c-52.791 0-81.916 0-109.333 13.897-24.209 12.582-43.919 32.418-55.917 56.085-13.961 27.226-13.958 56.35-13.958 109.227v409.583c0 52.877-0.001 82 14.083 109.435 11.831 23.415 31.545 43.273 55.417 55.668 26.249 13.333 53.666 14.063 101.167 14.106v42.667c0 23.561 19.085 42.667 42.667 42.667s42.667-19.106 42.667-42.667v-42.667h256v42.667c0 23.561 19.085 42.667 42.667 42.667s42.667-19.106 42.667-42.667v-42.667c47.501-0.043 74.876-0.773 100.791-13.897 24.252-12.604 43.964-32.457 55.919-56.124 13.961-27.127 13.956-56.23 13.956-109.043v-409.915c0-52.749 0-81.813-14.084-109.248-11.874-23.458-31.582-43.29-55.415-55.667-27.793-14.106-56.917-14.106-109.709-14.106zM213.333 576v-332.791c0-36.958-0.001-61.376 4.667-70.481 4.083-8.064 10.752-14.707 18.833-18.918 8.875-4.48 33.332-4.48 70.375-4.48h409.583c37.043 0 61.5 0 70.75 4.689 7.71 4.002 14.374 10.645 18.334 18.5 4.791 9.314 4.791 33.647 4.791 70.502v332.979h-597.333zM213.333 661.333h597.333c-0.043 32.188-0.375 53.564-4.668 61.897-4.083 8.102-10.709 14.728-18.833 18.956-8.875 4.48-33.331 4.48-70.374 4.48h-409.583c-37.043 0-61.5 0-70.75-4.689-7.748-4.019-14.374-10.646-18.333-18.458-4.416-8.602-4.749-29.999-4.791-62.186z" />
<glyph unicode="&#xe952;" glyph-name="Calendar_Event" d="M716.791 64h-409.583c-52.791 0-81.916 0-109.333 13.897-24.209 12.582-43.919 32.418-55.917 56.085-13.961 27.226-13.958 56.35-13.958 109.227v409.583c0 52.877-0.001 82 14.083 109.435 11.831 23.415 31.545 43.273 55.417 55.668 26.249 13.333 53.666 14.063 101.167 14.106v42.667c0 23.561 19.085 42.667 42.667 42.667s42.667-19.106 42.667-42.667v-42.667h256v42.667c0 23.561 19.085 42.667 42.667 42.667s42.667-19.106 42.667-42.667v-42.667c47.501-0.043 74.876-0.773 100.791-13.897 24.252-12.604 43.964-32.457 55.919-56.124 13.961-27.127 13.956-56.23 13.956-109.043v-409.915c0-52.749 0-81.813-14.084-109.248-11.874-23.458-31.582-43.29-55.415-55.667-27.793-14.106-56.917-14.106-109.709-14.106zM213.333 576v-332.791c0-36.958-0.001-61.376 4.667-70.481 4.083-8.064 10.752-14.707 18.833-18.918 8.875-4.48 33.332-4.48 70.375-4.48h409.583c37.043 0 61.5 0 70.75 4.689 7.71 4.002 14.374 10.645 18.334 18.5 4.791 9.314 4.791 33.647 4.791 70.502v332.979h-597.333zM213.333 661.333h597.333c-0.043 32.188-0.375 53.564-4.668 61.897-4.083 8.102-10.709 14.728-18.833 18.956-8.875 4.48-33.331 4.48-70.374 4.48h-409.583c-37.043 0-61.5 0-70.75-4.689-7.748-4.019-14.374-10.646-18.333-18.458-4.416-8.602-4.749-29.999-4.791-62.186zM501.333 234.667h-149.333c-29.419 0-53.333 23.915-53.333 53.333v149.333c0 29.419 23.915 53.333 53.333 53.333h149.333c29.419 0 53.333-23.915 53.333-53.333v-149.333c0-29.419-23.915-53.333-53.333-53.333zM384 320h85.333v85.333h-85.333v-85.333z" />
<glyph unicode="&#xe953;" glyph-name="Calendar_Remove" d="M716.791 64h-409.583c-52.791 0-81.916 0-109.333 13.897-24.209 12.582-43.919 32.418-55.917 56.085-13.961 27.226-13.958 56.35-13.958 109.227v409.583c0 52.877-0.001 82 14.083 109.435 11.831 23.415 31.545 43.273 55.417 55.668 26.249 13.333 53.666 14.063 101.167 14.106v42.667c0 23.561 19.085 42.667 42.667 42.667s42.667-19.106 42.667-42.667v-42.667h256v42.667c0 23.561 19.085 42.667 42.667 42.667s42.667-19.106 42.667-42.667v-42.667c47.501-0.043 74.876-0.773 100.791-13.897 24.252-12.604 43.964-32.457 55.919-56.124 13.961-27.127 13.956-56.23 13.956-109.043v-409.915c0-52.749 0-81.813-14.084-109.248-11.874-23.458-31.582-43.29-55.415-55.667-27.793-14.106-56.917-14.106-109.709-14.106zM213.333 576v-332.791c0-36.958-0.001-61.376 4.667-70.481 4.083-8.064 10.752-14.707 18.833-18.918 8.875-4.48 33.332-4.48 70.375-4.48h409.583c37.043 0 61.5 0 70.75 4.689 7.71 4.002 14.374 10.645 18.334 18.5 4.791 9.314 4.791 33.647 4.791 70.502v332.979h-597.333zM213.333 661.333h597.333c-0.043 32.188-0.375 53.564-4.668 61.897-4.083 8.102-10.709 14.728-18.833 18.956-8.875 4.48-33.331 4.48-70.374 4.48h-409.583c-37.043 0-61.5 0-70.75-4.689-7.748-4.019-14.374-10.646-18.333-18.458-4.416-8.602-4.749-29.999-4.791-62.186zM618.667 320h-213.333c-23.582 0-42.667 19.106-42.667 42.667s19.085 42.667 42.667 42.667h213.333c23.582 0 42.667-19.106 42.667-42.667s-19.085-42.667-42.667-42.667z" />
<glyph unicode="&#xe954;" glyph-name="Calendar_Week" d="M716.791 64h-409.583c-52.791 0-81.916 0-109.333 13.897-24.209 12.582-43.919 32.418-55.917 56.085-13.961 27.226-13.958 56.35-13.958 109.227v409.583c0 52.877-0.001 82 14.083 109.435 11.831 23.415 31.545 43.273 55.417 55.668 26.249 13.333 53.666 14.063 101.167 14.106v42.667c0 23.561 19.085 42.667 42.667 42.667s42.667-19.106 42.667-42.667v-42.667h256v42.667c0 23.561 19.085 42.667 42.667 42.667s42.667-19.106 42.667-42.667v-42.667c47.501-0.043 74.876-0.773 100.791-13.897 24.252-12.604 43.964-32.457 55.919-56.124 13.961-27.127 13.956-56.23 13.956-109.043v-409.915c0-52.749 0-81.813-14.084-109.248-11.874-23.458-31.582-43.29-55.415-55.667-27.793-14.106-56.917-14.106-109.709-14.106zM213.333 576v-332.791c0-36.958-0.001-61.376 4.667-70.481 4.083-8.064 10.752-14.707 18.833-18.918 8.875-4.48 33.332-4.48 70.375-4.48h409.583c37.043 0 61.5 0 70.75 4.689 7.71 4.002 14.374 10.645 18.334 18.5 4.791 9.314 4.791 33.647 4.791 70.502v332.979h-597.333zM213.333 661.333h597.333c-0.043 32.188-0.375 53.564-4.668 61.897-4.083 8.102-10.709 14.728-18.833 18.956-8.875 4.48-33.331 4.48-70.374 4.48h-409.583c-37.043 0-61.5 0-70.75-4.689-7.748-4.019-14.374-10.646-18.333-18.458-4.416-8.602-4.749-29.999-4.791-62.186zM682.667 405.333h-341.333c-23.582 0-42.667 19.106-42.667 42.667s19.085 42.667 42.667 42.667h341.333c23.582 0 42.667-19.106 42.667-42.667s-19.085-42.667-42.667-42.667z" />
<glyph unicode="&#xe955;" glyph-name="Calendar" d="M716.791 64h-409.583c-52.791 0-81.916 0-109.333 13.897-24.209 12.582-43.919 32.418-55.917 56.085-13.961 27.226-13.958 56.35-13.958 109.227v409.583c0 52.877-0.001 82.001 14.083 109.436 11.831 23.415 31.545 43.273 55.417 55.667 26.249 13.333 53.666 14.063 101.167 14.106v42.667c0 23.561 19.085 42.667 42.667 42.667s42.667-19.106 42.667-42.667v-42.667h256v42.667c0 23.561 19.085 42.667 42.667 42.667s42.667-19.106 42.667-42.667v-42.667c47.501-0.043 74.876-0.772 100.791-13.897 24.252-12.604 43.964-32.457 55.919-56.124 13.961-27.127 13.956-56.23 13.956-109.043v-409.916c0-52.749 0-81.813-14.084-109.248-11.874-23.458-31.582-43.29-55.415-55.667-27.793-14.106-56.917-14.106-109.709-14.106zM213.333 576v-332.791c0-36.958-0.001-61.376 4.667-70.481 4.083-8.064 10.752-14.707 18.833-18.918 8.875-4.48 33.332-4.48 70.375-4.48h409.583c37.043 0 61.5 0 70.75 4.689 7.71 4.002 14.374 10.645 18.334 18.5 4.791 9.314 4.791 33.647 4.791 70.502v332.979h-597.333zM213.333 661.333h597.333c-0.043 32.188-0.375 53.564-4.668 61.897-4.083 8.102-10.709 14.729-18.833 18.957-8.875 4.48-33.331 4.48-70.374 4.48h-409.583c-37.043 0-61.5 0-70.75-4.689-7.748-4.019-14.374-10.646-18.333-18.458-4.416-8.602-4.749-29.999-4.791-62.187z" />
<glyph unicode="&#xe956;" glyph-name="Camera" d="M759.458 106.667h-494.916c-52.855 0-81.96 0-109.458 14.042-23.748 12.207-43.477 31.957-55.646 55.625-14.106 27.541-14.104 56.666-14.104 109.542v238.916c0 52.877 0 82.002 14.063 109.458 12.207 23.748 31.937 43.498 55.583 55.667 27.605 14.084 56.707 14.083 109.563 14.083h50.729c-0.021 5.875 0.584 11.793 1.792 17.625 0.542 2.876 1.705 7.582 5.042 16.875 2.21 7.249 3.939 11.251 5.625 15.125 18.415 44.582 60.041 74.581 108.439 77.875 2.415 0.333 7.125 0.5 16.542 0.5h118.579c9.417 0 14.131-0.166 18.837-0.75 46.084-3.042 87.706-33.040 106.372-78.083 1.583-3.75 3.29-7.75 5.999-16.458 2.752-7.458 3.878-12.205 4.544-15.542 1.165-5.666 1.749-11.419 1.707-17.167h50.709c52.877 0 82.001 0 109.457-14.042 23.748-12.207 43.499-31.958 55.667-55.625 14.084-27.541 14.084-56.665 14.084-109.542v-238.916c0-52.877 0-82.001-14.042-109.457-12.207-23.748-31.957-43.499-55.625-55.667-27.541-14.084-56.666-14.084-109.542-14.084zM264.542 618.667c-36.979 0-61.418 0.002-70.625-4.708-7.748-3.959-14.563-10.792-18.604-18.625-4.646-9.126-4.646-33.541-4.646-70.542v-238.916c0-37.001-0.002-61.419 4.687-70.626 4.002-7.748 10.812-14.583 18.667-18.581 9.105-4.668 33.542-4.668 70.521-4.668h494.916c37.001 0 61.419 0 70.626 4.71 7.748 3.959 14.583 10.79 18.581 18.624 4.668 9.126 4.668 33.54 4.668 70.541v238.916c0 37.001 0 61.418-4.71 70.625-3.959 7.748-10.79 14.586-18.624 18.583-9.126 4.668-33.54 4.667-70.541 4.667h-140.373c-0.794 0.043-1.668 0.043-2.543 0h-209.084c-0.832 0-1.705 0-2.542 0h-140.375zM617.374 704h1.711c1.459 0.418 2.249 0.125 3.584 0.125 0.286 0 0.666 0.041 1.041 0.083-0.585 1.207-1.165 2.754-2.044 5.25-2.082 6.46-2.965 8.541-3.802 10.5-6.374 15.415-20.002 25.334-35.793 26.375-4.373 0.457-6.583 0.333-10.79 0.333h-118.583c-4.228 0-6.374 0.087-8.499-0.083-18.083-1.293-31.701-11.206-37.824-26.042-1.105-2.581-1.958-4.585-3.375-9.167-1.54-4.373-2.105-6.001-2.417-7.208 0.457-0.043 0.894-0.086 1.312-0.167 0.145 0 0.268 0 0.417 0h215.061zM512 234.667c-94.106 0-170.667 76.54-170.667 170.667s76.561 170.667 170.667 170.667c94.127 0 170.667-76.54 170.667-170.667s-76.54-170.667-170.667-170.667zM512 490.667c-47.061 0-85.333-38.293-85.333-85.333s38.272-85.333 85.333-85.333c47.040 0 85.333 38.293 85.333 85.333s-38.293 85.333-85.333 85.333z" />
<glyph unicode="&#xe957;" glyph-name="Car_Auto" d="M768 64c-70.583 0-128 57.417-128 128h-256c0-70.583-57.417-128-128-128s-128 57.417-128 128v256c-23.582 0-42.667 19.106-42.667 42.667s19.085 42.667 42.667 42.667h15.084c0.333 0.73 0.708 1.482 1.083 2.25l65.167 147.287c15.002 33.459 22.874 51.021 38 66.833 14.331 14.938 31.081 25.749 49.833 32.187 20.416 7.437 40.25 7.438 76.167 7.438h277.333c35.917 0 55.748 0.001 76.877-7.688 18.044-6.187 34.786-16.997 49.079-31.896 15.168-15.855 23.040-33.416 37.333-65.271l66.876-150.464c0.085-0.23 0.213-0.457 0.294-0.686h14.874c23.582 0 42.667-19.106 42.667-42.667s-19.085-42.667-42.667-42.667v-256c0-70.575-57.417-127.991-128-127.991zM725.333 192c0-23.522 19.123-42.667 42.667-42.667s42.667 19.145 42.667 42.667h-85.333zM213.333 192c0-23.522 19.123-42.667 42.667-42.667s42.667 19.145 42.667 42.667h-85.333zM682.667 277.333h128v170.667h-597.333v-170.667h469.333zM236.458 533.333h551.292l-51.085 114.938c-10.624 23.71-16.708 37.265-21.666 42.432-4.749 4.958-10.125 8.5-15.915 10.479-7.748 2.812-23.040 2.813-48.418 2.813h-277.333c-25.374 0-40.664 0.002-47.708-2.563-6.498-2.227-11.875-5.775-16.667-10.771-4.915-5.124-11.001-18.687-21.083-41.125l-51.417-116.203z" />
<glyph unicode="&#xe958;" glyph-name="Caret_Circle_Down" d="M512 21.333c-235.273 0-426.667 191.394-426.667 426.667s191.394 426.667 426.667 426.667c235.273 0 426.667-191.394 426.667-426.667s-191.394-426.667-426.667-426.667zM512 789.333c-188.207 0-341.333-153.126-341.333-341.333s153.126-341.333 341.333-341.333c188.207 0 341.333 153.126 341.333 341.333s-153.126 341.333-341.333 341.333zM512 320c-10.918 0-21.833 4.169-30.165 12.501l-127.999 128c-16.666 16.666-16.666 43.665 0 60.335s43.663 16.666 60.333 0l97.835-97.835 97.835 97.835c16.666 16.666 43.665 16.666 60.335 0s16.666-43.665 0-60.335l-128-128c-8.341-8.333-19.255-12.501-30.174-12.501z" />
<glyph unicode="&#xe959;" glyph-name="Caret_Circle_Left" d="M512 21.333c-235.273 0-426.667 191.394-426.667 426.667s191.394 426.667 426.667 426.667c235.273 0 426.667-191.394 426.667-426.667s-191.394-426.667-426.667-426.667zM512 789.333c-188.207 0-341.333-153.126-341.333-341.333s153.126-341.333 341.333-341.333c188.207 0 341.333 153.126 341.333 341.333s-153.126 341.333-341.333 341.333zM554.667 277.333c-10.918 0-21.833 4.169-30.165 12.501l-127.999 128c-16.666 16.666-16.666 43.665 0 60.335l127.999 128c16.666 16.666 43.665 16.666 60.335 0s16.666-43.665 0-60.335l-97.835-97.835 97.835-97.835c16.666-16.666 16.666-43.665 0-60.335-8.337-8.329-19.251-12.497-30.17-12.497z" />
<glyph unicode="&#xe95a;" glyph-name="Caret_Circle_Right" d="M512 21.333c-235.273 0-426.667 191.394-426.667 426.667s191.394 426.667 426.667 426.667c235.273 0 426.667-191.394 426.667-426.667s-191.394-426.667-426.667-426.667zM512 789.333c-188.207 0-341.333-153.126-341.333-341.333s153.126-341.333 341.333-341.333c188.207 0 341.333 153.126 341.333 341.333s-153.126 341.333-341.333 341.333zM469.333 277.333c-10.918 0-21.833 4.169-30.165 12.501-16.664 16.666-16.664 43.665 0 60.335l97.835 97.835-97.835 97.834c-16.664 16.666-16.664 43.666 0 60.336 16.666 16.67 43.665 16.666 60.335 0l128-128c16.666-16.666 16.666-43.665 0-60.335l-128-128c-8.337-8.337-19.251-12.506-30.17-12.506z" />
<glyph unicode="&#xe95b;" glyph-name="Caret_Circle_Up" d="M512 21.333c-235.273 0-426.667 191.394-426.667 426.667s191.394 426.667 426.667 426.667c235.273 0 426.667-191.394 426.667-426.667s-191.394-426.667-426.667-426.667zM512 789.333c-188.207 0-341.333-153.126-341.333-341.333s153.126-341.333 341.333-341.333c188.207 0 341.333 153.126 341.333 341.333s-153.126 341.333-341.333 341.333zM640 362.667c-10.918 0-21.833 4.169-30.165 12.501l-97.835 97.835-97.836-97.835c-16.666-16.666-43.663-16.666-60.333 0s-16.666 43.665 0 60.335l128 128c16.666 16.666 43.665 16.666 60.335 0l128-128c16.666-16.666 16.666-43.665 0-60.335-8.333-8.333-19.247-12.501-30.165-12.501z" />
<glyph unicode="&#xe95c;" glyph-name="Caret_Down_MD" d="M512 320c-10.918 0-21.833 4.169-30.165 12.501l-170.666 170.667c-16.666 16.666-16.666 43.666 0 60.336s43.665 16.666 60.335 0l140.501-140.503 140.501 140.503c16.666 16.666 43.665 16.666 60.335 0s16.666-43.666 0-60.336l-170.667-170.667c-8.341-8.333-19.255-12.501-30.174-12.501z" />
<glyph unicode="&#xe95d;" glyph-name="Caret_Down_SM" d="M512 319.996c-10.918 0-21.833 4.173-30.165 12.506l-128 128c-16.666 16.666-16.666 43.661 0 60.331s43.665 16.666 60.335 0l97.835-97.835 97.835 97.835c16.666 16.666 43.665 16.666 60.335 0s16.666-43.661 0-60.331l-128-128c-8.341-8.333-19.255-12.506-30.174-12.506z" />
<glyph unicode="&#xe95e;" glyph-name="Caret_Left_SM" d="M554.667 277.333c-10.918 0-21.833 4.169-30.165 12.501l-128 128c-16.666 16.666-16.666 43.661 0 60.335l128 127.998c16.666 16.666 43.665 16.666 60.335 0s16.666-43.663 0-60.333l-97.835-97.834 97.835-97.839c16.666-16.666 16.666-43.661 0-60.331-8.337-8.329-19.251-12.497-30.17-12.497z" />
<glyph unicode="&#xe95f;" glyph-name="Caret_Right_SM" d="M469.333 277.333c-10.918 0-21.833 4.173-30.165 12.506-16.665 16.666-16.665 43.661 0 60.331l97.835 97.839-97.835 97.832c-16.665 16.666-16.665 43.666 0 60.336s43.665 16.666 60.335 0l128-127.998c16.666-16.666 16.666-43.669 0-60.339l-128-128c-8.337-8.337-19.251-12.506-30.17-12.506z" />
<glyph unicode="&#xe960;" glyph-name="Caret_Up_MD" d="M682.667 320c-10.918 0-21.833 4.169-30.165 12.501l-140.501 140.501-140.502-140.501c-16.666-16.666-43.665-16.666-60.335 0s-16.666 43.661 0 60.331l170.667 170.669c16.666 16.666 43.665 16.666 60.335 0l170.667-170.669c16.666-16.666 16.666-43.661 0-60.331-8.333-8.333-19.247-12.501-30.165-12.501z" />
<glyph unicode="&#xe961;" glyph-name="Caret_Up_SM" d="M640 362.667c-10.918 0-21.833 4.169-30.165 12.501l-97.835 97.835-97.835-97.835c-16.666-16.666-43.665-16.666-60.335 0s-16.666 43.661 0 60.335l128 127.998c16.666 16.666 43.665 16.666 60.335 0l128-127.998c16.666-16.666 16.666-43.665 0-60.335-8.333-8.333-19.247-12.501-30.165-12.501z" />
</font>
</defs>
</svg>
